Качині історії / DuckTales (Сезон 1) (2017) WEB-DLRip

Відповісти в темі
Список завантажень та торрент активність
Завершено: [ 4 ]
 
   
 
 
Автор Повідомлення

sergiyko ®

Стаж: 5 місяців 17 днів

Повідомлень: 823

Опублікувати 28-Лис-2020 11:59

[Цитувати]

Качині історії / DuckTales (Сезон 1) (2017) WEB-DLRip
Жанр: пригоди, комедія
Країна: США
Кінокомпанія: Disney Television Animation
Режисер: Дана Тіррас
Сюжет:
Жадібний, але добродушний багатій Скрудж МакДак, який має власний грошовий басейн, постійно потрапляє у халепи… Але йому завжди допомагають племінники – Крячик, Квачик і Кручик. Скрудж – найзаможніший качур у світі, та все одно постійно шукає шляхи для збільшення свого капіталу. А разом із капіталом росте й кількість заздрісників, що бажають Скруджу МакДаку якнайшвидше збанкротувати. Тому він і стає жадібним скнарою для всіх оточуючих, але залишається добрим дядечком для своїх племінників.
IMDb 8,2/10 6470
Тривалість: 1 серія: 21:40 (цілком серій: 25 з 25)
Якість: WEB-DL
Озвучення: професійне дубльоване (ПлюсПлюс)
Відео: H264 1024x576 1200Kbps
Аудіо: AC3 2.0ch 192Kbps - українська
Примітка: українська доріжка записана з трансляції телеканала ПлюсПлюс і синхронізована під HD відео, звук не розтягувався і не змінювався тон.
Запис/зведення: sergiyko

Перелік серій:

01-02 Woo-oo!
03 Daytrip of Doom
04 The Impossible Summit of Mt. Neverrest!
05 The Great Dime Chase!
06 The Beagle Birthday Massacre!
07 The House of the Lucky Gander!
08 The Infernal Internship of Mark Beaks!
09 The Living Mummies of Toth-Ra!
10 Terror of the Terra-Firmians
11 McMystery at McDuck McManor!
12 The Spear of Selene
13 The Missing Links of Moorshire
14 Beware the B.U.D.D.Y. System!
15 Day of the Only Child
16 Jaw$!
17 The Golden Lagoon of White Agony Plains!
18 From the Confidential Case Files of Agent 22!
19 Sky Pirates...In the Sky!
20 The Other Bin of Scrooge McDuck!
21 Who is Gizmoduck?!
22 The Secret(s) of Castle McDuck!
23 The Last Crash of the Sunchaser!
24-25 The Shadow War!

Про файл:

General
Unique ID : 53121290777481307743705576973175099091 (0x27F6C9D877BC7CE5E3BE1AF7C5E80ED3)
Complete name : G:\Torrents2\MULT\MuSERIAL\DuckTales 2017 WEB-DLRip\S01E03.Daytrip.of.Doom.WEB-DLRip.mkv
Format : Matroska
Format version : Version 4
File size : 217 MiB
Duration : 21 min 12 s
Overall bit rate : 1 429 kb/s
Movie name : DuckTales 2017 WEB-DLRip by sergiyko
Encoded date : UTC 2019-04-06 06:30:49
Writing application : mkvmerge v32.0.0 ('Astral Progressions') 64-bit
Writing library : libebml v1.3.7 + libmatroska v1.5.0
Video
ID : 1
Format : AVC
Format/Info : Advanced Video Codec
Format profile : [email protected]
Format settings : CABAC / 7 Ref Frames
Format settings, CABAC : Yes
Format settings, ReFrames : 7 frames
Codec ID : V_MPEG4/ISO/AVC
Duration : 21 min 12 s
Bit rate : 1 235 kb/s
Width : 1 024 pixels
Height : 576 pixels
Display aspect ratio : 16:9
Frame rate mode : Constant
Frame rate : 25.000 FPS
Color space : YUV
Chroma subsampling : 4:2:0
Bit depth : 8 bits
Scan type : Progressive
Bits/(Pixel*Frame) : 0.084
Stream size : 187 MiB (86%)
Writing library : x264 core 152 r2851 ba24899
Encoding settings : cabac=1 / ref=7 / deblock=1:0:0 / analyse=0x3:0x133 / me=umh / subme=9 / psy=1 / psy_rd=0.40:0.00 / mixed_ref=1 / me_range=24 / chroma_me=1 / trellis=2 / 8x8dct=1 / cqm=0 / deadzone=21,11 / fast_pskip=1 / chroma_qp_offset=-2 / threads=18 / lookahead_threads=2 / sliced_threads=0 / nr=0 / decimate=1 / interlaced=0 / bluray_compat=0 / constrained_intra=0 / bframes=5 / b_pyramid=2 / b_adapt=2 / b_bias=0 / direct=3 / weightb=1 / open_gop=0 / weightp=2 / keyint=250 / keyint_min=25 / scenecut=40 / intra_refresh=0 / rc_lookahead=60 / rc=crf / mbtree=1 / crf=19.0 / qcomp=0.70 / qpmin=0 / qpmax=69 / qpstep=4 / ip_ratio=1.40 / aq=1:0.60
Language : English
Default : Yes
Forced : No
Audio
ID : 2
Format : AC-3
Format/Info : Audio Coding 3
Commercial name : Dolby Digital
Codec ID : A_AC3
Duration : 21 min 12 s
Bit rate mode : Constant
Bit rate : 192 kb/s
Channel(s) : 2 channels
Channel layout : L R
Sampling rate : 48.0 kHz
Frame rate : 31.250 FPS (1536 SPF)
Bit depth : 16 bits
Compression mode : Lossy
Stream size : 29.1 MiB (13%)
Language : Ukrainian
Service kind : Complete Main
Default : Yes
Forced : No
Скріншоти:
Схожі релізи
Додано Роздачі Розмір Сід | Ліч
26-Лют-21 09:56 Качині історії / DuckTales (Сезон 3, 17 серій з 25) (2020) WEB-DL 1080p Ukr/Eng 13.93 GB 5 | 0
26-Гру-20 16:47 Шахерезада. Нерозказані історії / Sherazade: The Untold Stories (Сезон 1) (2017) WEB-DLRip 8.69 GB 1 | 0
26-Гру-20 16:21 Шахерезада. Нерозказані історії / Sherazade: The Untold Stories (Сезон 1) (2017) WEB-DL 1080p 18.67 GB 1 | 0
01-Гру-20 21:06 Королі Франції. 15 століть історії / Les Rois de France. 15 siecles d'Histoire (Сезон 1) (2011) WEBRip 1080p Ukr/Fre 45.58 GB |
01-Гру-20 21:01 Королі Франції. 15 століть історії / Les Rois de France. 15 siecles d'Histoire (Сезон 2) (2013) WEBRip 1080p 15.12 GB |
[Профіль] [ПП]
Показати повідомлення:    
Відповісти в темі

Поточний час: 06-Тра 17:13

Часовий пояс: UTC + 2



Ви не можете створювати нові теми на форумі
Ви не можете відповідати в темах на форумі
Ви не можете редагувати свої повідомлення на форумі
Ви не можете голосувати в опитуваннях на форумі
Ви не можете прикріплювати файли
Ви не можете завантажувати файли