Чемпіонат Англії 2020/21 | Тоттенгем - Лестер Сіті | 14 тур | Setanta Sports (20.12.2020) IPTVRip 1080p

Тема заблокована
 
Автор Повідомлення

WhiteBear60 ®

Стаж: 8 місяців 3 днів

Повідомлень: 8

Опублікувати 21-Гру-2020 13:45

[Цитувати]

Чемпіонат Англії 2020/21 | Тоттенгем - Лестер Сіті | 14 тур | Setanta Sports (20.12.2020) IPTVRip 1080p Телеканал: Setanta Sports Ukraine
Про матч:Матч відбувся 20 грудня 2020 року у Лондоні на Тоттенгем Готспур Стедіум.
Матч обслуговували:
Рефері: Крейг Поусон
Асистенти рефері: Сімон Беннетт, Едді Смарт
Четвертий арбітр: Девід Кут
VAR: Пол Тірні
Асистент VAR: Гаррі Леннард
Якість: IPTVRip
Відео:
кодек: H.264
розмір кадру: 1920 x 1080
бітрейт: ~3500 кб/с
Аудіо:
мова: українська
коментатор: Ігор Бойко
кодек: AAC 2.0
бітрейт: 129 кб/с

Тривалість

01:46:18

MediaInfo

General
Unique ID                                : 223606402349098888937826883262682945754 (0xA83906CF867262A81B251C5298F2D8DA)
Complete name                            : EPL.2020-21.Matchday.14.Tottenham.Leicester.City.IPTVRip.1080p.mkv
Format                                   : Matroska
Format version                           : Version 4
File size                                : 2.69 GiB
Duration                                 : 1 h 46 min
Overall bit rate                         : 3 626 kb/s
Movie name                               : English Premier League. Matchday 14. Tottenham - Leicester City
Encoded date                             : UTC 2020-12-21 10:11:13
Writing application                      : mkvmerge v24.0.0 ('Beyond The Pale') 64-bit
Writing library                          : libebml v1.3.6 + libmatroska v1.4.9
Video
ID                                       : 2
Format                                   : AVC
Format/Info                              : Advanced Video Codec
Format profile                           : [email protected]
Format settings                          : 2 Ref Frames
Format settings, CABAC                   : No
Format settings, Reference frames        : 2 frames
Format settings, GOP                     : M=3, N=25
Codec ID                                 : V_MPEG4/ISO/AVC
Duration                                 : 1 h 46 min
Bit rate                                 : 3 495 kb/s
Width                                    : 1 920 pixels
Height                                   : 1 080 pixels
Display aspect ratio                     : 16:9
Frame rate mode                          : Constant
Frame rate                               : 25.000 FPS
Color space                              : YUV
Chroma subsampling                       : 4:2:0
Bit depth                                : 8 bits
Scan type                                : Progressive
Bits/(Pixel*Frame)                       : 0.067
Stream size                              : 2.59 GiB (96%)
Title                                    : English Premier League. Matchday 14. Tottenham - Leicester City
Language                                 : English
Default                                  : Yes
Forced                                   : No
Audio
ID                                       : 1
Format                                   : AAC LC
Format/Info                              : Advanced Audio Codec Low Complexity
Codec ID                                 : A_AAC-2
Duration                                 : 1 h 46 min
Bit rate                                 : 129 kb/s
Channel(s)                               : 2 channels
Channel layout                           : L R
Sampling rate                            : 48.0 kHz
Frame rate                               : 46.875 FPS (1024 SPF)
Compression mode                         : Lossy
Delay relative to video                  : 541 ms
Stream size                              : 97.9 MiB (4%)
Title                                    : Commentaries by Ihor Boyko
Language                                 : Ukrainian
Default                                  : Yes
Forced                                   : No

Стартові склади

Скріншоти





Схожі релізи
Додано Роздачі Розмір Сід | Ліч
03-Лип-21 23:20 Чемпіонат Європи 2020 | Україна - Англія | 1/4 фіналу | ТК Україна (03.07.2021) IPTVRip 1080p 3.13 GB 1 | 0
30-Чер-21 11:33 Чемпіонат Європи 2020 | Швеція - Україна | 1/8 фіналу | ТК Україна (29.06.2021) HDTVRip 720p 2.75 GB 1 | 0
21-Чер-21 20:06 Чемпіонат Європи 2020 | Україна - Австрія | Група C, 3 тур | ТК Україна (21.06.2021) HDTVRip 1080p 3.15 GB 1 | 0
28-Бер-21 19:59 Чемпіонат світу 2022 | Євровідбір | Група D | Франція - Україна | 1 тур | Футбол 1/2 (24.03.2021) IPTV 1080p 5.3 GB 0 | 1


Востаннє редаговано WhiteBear60 (2020-12-23 09:05); всього редаговано 2 разів
[Профіль] [ПП]

sergiyko

Стаж: 8 місяців 13 днів

Повідомлень: 953

Опублікувати 22-Гру-2020 15:57 (після 1 день 2 годин)

[Цитувати]

Завантажив, стою на роздачі. Система працює нормально.
[Профіль] [ПП]

Андрій

Стаж: 8 місяців 14 днів

Повідомлень: 69

Опублікувати 22-Гру-2020 18:36 (після 2 годин 39 хвилин)

[Цитувати]

Червоний колір заборонено використовувати в описі, повідомленнях. Скріни у "Стартові склади" зробіть середнього або маленького розміру як прості скріншоти.
[Профіль] [ПП]

WhiteBear60 ®

Стаж: 8 місяців 3 днів

Повідомлень: 8

Опублікувати 23-Гру-2020 09:06 (після 14 годин)

[Цитувати]

614Червоний колір заборонено використовувати в описі, повідомленнях. Скріни у "Стартові склади" зробіть середнього або маленького розміру як прості скріншоти.
Зробив
[Профіль] [ПП]

Андрій

Стаж: 8 місяців 14 днів

Повідомлень: 69

Опублікувати 23-Гру-2020 13:46 (після 4 годин)

[Цитувати]

Добре. А з сідування не розібрались, чому у інших виходить, у вас ні?
[Профіль] [ПП]

WhiteBear60 ®

Стаж: 8 місяців 3 днів

Повідомлень: 8

Опублікувати 23-Гру-2020 16:26 (після 2 годин 40 хвилин)

[Цитувати]

619Добре. А з сідування не розібрались, чому у інших виходить, у вас ні?
Не розумію. Припускаю, що все через мій "сірий" IP, хоча на інших трекерах таких проблем немає (як мінімум, трекер бачить, що я сід, коли я вмикаю клієнт)
[Профіль] [ПП]

Андрій

Стаж: 8 місяців 14 днів

Повідомлень: 69

Опублікувати 23-Гру-2020 22:14 (після 5 годин)

[Цитувати]

Все дуже просто. Завантажити торент-файл, відкрити торент-клієнтом і сідувати. І не треба кожну секунду перевіряти статус торента.
[Профіль] [ПП]
Показати повідомлення:    
Тема заблокована

Поточний час: 02-Сер 14:34

Часовий пояс: UTC + 2



Ви не можете створювати нові теми на форумі
Ви не можете відповідати в темах на форумі
Ви не можете редагувати свої повідомлення на форумі
Ви не можете голосувати в опитуваннях на форумі
Ви не можете прикріплювати файли
Ви не можете завантажувати файли