Родина Адамсів 2 / The Addams Family 2 (2021) WEB-DL 1080p Ukr/Eng | Sub Eng

Відповісти в темі
 
Автор Повідомлення

staf777 ®

Стаж: 1 рік 1 місяць

Повідомлень: 1295

Опублікувати 05-Січ-2022 15:51

[Цитувати]

Родина Адамсів 2 / The Addams Family 2 (2021) WEB-DL 1080p Ukr/Eng | Sub Eng
Жанр: пригодницький, комедія, сімейний, фентезі, жахи
Країна: США, Канада

Кінокомпанія: Metro-Goldwyn-Mayer (MGM), BRON Studios, Creative Wealth Media Finance
Режисер: Конрад Вернон, Ґреґ Тірнан
Актори: Оскар Айзек, Шарліз Терон, Хлоя Ґрейс Морец, Джейвон Волтон, Нік Кролл, Снуп Доґґ, Бетт Мідлер, Білл Гейдер та ін.
Сюжет: Гадаєте, кріповіше вже нікуди? Легендарна сімейка Адамсів повертається у продовженні пекельно-драйвової анімаційної пригоди! Ще більше інтриг, переляків та дивакуватих жартів на будь-який смак!
Тривалість: 01:32:43
Якість: WEB-DL 1080p
Відео:
кодек: H.264
розмір кадру: 1920x1040
бітрейт: 6983 кб/с
Аудіо # 1:
мова: українська
переклад: професійний дубльований
кодек: AC3 5.1
бітрейт: 448 кб/с
Аудіо # 2:
мова: англійська
переклад: оригінал
кодек: E-AC3 5.1
бітрейт: 640 кб/с
Субтитри:
мова: англійська
тип: програмні (м'які)
формат: *.srt

MediaInfo:

General
Unique ID : 137149462645577695742736665551631714866 (0x672E06940CF78BBFC287F07F047E8A32)
Complete name : I:\Toloka\Мультфільми в HD\The Addams Family 2 (2021) WEB-DL 1080p [UKR_ENG] [Hurtom].mkv
Format : Matroska
Format version : Version 4
File size : 5.23 GiB
Duration : 1 h 32 min
Overall bit rate : 8 074 kb/s
Movie name : Родина Адамсів 2 / The Addams Family 2 (2021) WEB-DL 1080p [UKR_ENG] [Hurtom]
Encoded date : UTC 2021-12-29 19:26:51
Writing application : mkvmerge v45.0.0 ('Heaven in Pennies') 64-bit
Writing library : libebml v1.3.10 + libmatroska v1.5.2
Cover : Yes
Attachments : cover.jpg
Video
ID : 1
Format : AVC
Format/Info : Advanced Video Codec
Format profile : [email protected]
Format settings : CABAC / 4 Ref Frames
Format settings, CABAC : Yes
Format settings, Reference : 4 frames
Codec ID : V_MPEG4/ISO/AVC
Duration : 1 h 32 min
Bit rate mode : Constant
Bit rate : 6 983 kb/s
Nominal bit rate : 10 000 kb/s
Width : 1 920 pixels
Height : 1 040 pixels
Display aspect ratio : 1.85:1
Frame rate mode : Constant
Frame rate : 23.976 (24000/1001) FPS
Color space : YUV
Chroma subsampling : 4:2:0
Bit depth : 8 bits
Scan type : Progressive
Bits/(Pixel*Frame) : 0.146
Stream size : 4.52 GiB (86%)
Default : Yes
Forced : No
Color range : Limited
Color primaries : BT.709
Transfer characteristics : BT.709
Matrix coefficients : BT.709
Audio #1
ID : 2
Format : AC-3
Format/Info : Audio Coding 3
Commercial name : Dolby Digital
Codec ID : A_AC3
Duration : 1 h 32 min
Bit rate mode : Constant
Bit rate : 448 kb/s
Channel(s) : 6 channels
Channel layout : L R C LFE Ls Rs
Sampling rate : 48.0 kHz
Frame rate : 31.250 FPS (1536 SPF)
Compression mode : Lossy
Stream size : 297 MiB (6%)
Title : DUB AC3 5.1 448 kb/s
Language : Ukrainian
Service kind : Complete Main
Default : Yes
Forced : Yes
Audio #2
ID : 3
Format : E-AC-3
Format/Info : Enhanced AC-3
Commercial name : Dolby Digital Plus
Codec ID : A_EAC3
Duration : 1 h 32 min
Bit rate mode : Constant
Bit rate : 640 kb/s
Channel(s) : 6 channels
Channel layout : L R C LFE Ls Rs
Sampling rate : 48.0 kHz
Frame rate : 31.250 FPS (1536 SPF)
Compression mode : Lossy
Stream size : 424 MiB (8%)
Title : English
Language : English
Service kind : Complete Main
Default : No
Forced : No
Text #1
ID : 4
Format : UTF-8
Codec ID : S_TEXT/UTF8
Codec ID/Info : UTF-8 Plain Text
Duration : 1 h 27 min
Bit rate : 56 b/s
Count of elements : 1437
Stream size : 36.1 KiB (0%)
Title : English
Language : English
Default : No
Forced : No
Text #2
ID : 5
Format : UTF-8
Codec ID : S_TEXT/UTF8
Codec ID/Info : UTF-8 Plain Text
Duration : 1 h 27 min
Bit rate : 80 b/s
Count of elements : 1870
Stream size : 51.8 KiB (0%)
Title : English [SDH]
Language : English
Default : No
Forced : No

Джерело: &
Схожі релізи
Додано Роздачі Розмір Сід | Ліч
05-Січ-22 23:18 Родина Адамсів 2 / The Addams Family 2 (2021) WEB-DL 720p Ukr/Eng | Sub Eng 2.72 GB 3 | 0
05-Січ-22 23:14 Родина Адамсів 2 / The Addams Family 2 (2021) WEB-DL 4K 2160p H.265 HDR Ukr/Eng | Sub Eng 9.75 GB 3 | 0
31-Жов-21 15:02 Родина Адамсів 2 / The Addams Family 2 (2021) WEB-DL 1080p 4.65 GB 1 | 1
31-Жов-21 14:46 Родина Адамсів 2 / The Addams Family 2 (2021) WEB-DLRip 1.69 GB 1 | 0


Востаннє змінено staf777 (2022-01-05 16:20); всього редагувань: 1
[Профіль] [ПП]

Опублікувати 05-Січ-2022 16:19 (після 27 хвилин)

Тему було перенесено з форуму Незабаром на трекері на форум Мультфільми HD, UHD
staf777
 
Показати повідомлення:    
Відповісти в темі

Поточний час: 21-Січ 19:02

Часовий пояс: UTC + 2



Ви не можете створювати нові теми на форумі
Ви не можете відповідати в темах на форумі
Ви не можете редагувати свої повідомлення на форумі
Ви не можете голосувати в опитуваннях на форумі
Ви не можете прикріплювати файли
Ви не можете завантажувати файли