Дженніфер вісім / Jennifer Eight (1992) BDRip 1080p 2xUkr/Eng | Sub Eng

Відповісти в темі
 
Автор Повідомлення

staf777 ®

Стаж: 1 рік 1 місяць

Повідомлень: 1343

Опублікувати 31-Гру-2021 20:25

[Цитувати]

Дженніфер вісім / Jennifer Eight (1992) BDRip 1080p 2xUkr/Eng | Sub Eng
Жанр: трилер, детектив
Країна: США

Кінокомпанія: Paramount Pictures
Режисер: Брюс Робінсон
Актори: Енді Гарсіа, Ума Турман, Ленс Хенріксен, Кеті Бейкер, Грем Беккел, Кевін Конвей, Джон Малкович, Ленні Вон Долен, Пол Бейтс, Перрі Ленг, Ніколас Лав, Брайан Ларкін, Майкл О'Нейлл, Роберт Гантон
Сюжет: Втомлений від кошмарів Лос-Анжелеса поліцейський переводиться до невеличкого містечка в Північній Каліфорнії, де на його голову одразу ж звалюється розслідування серії звірячих вбивств. Чи буде наступною жертвою прекрасна блондинка?
Тривалість: 02:05:20
Якість: BDRip 1080p
Відео:
кодек: H.264
розмір кадру: 1920x1076
бітрейт: 18494 кб/с
Аудіо # 1:
мова: українська
переклад: багатоголосий закадровий
кодек: AC3 2.0
бітрейт: 192 кб/с
Аудіо # 2:
мова: українська
переклад: двоголосий закадровий
кодек: AC3 2.0
бітрейт: 192 кб/с
Аудіо # 3:
мова: англійська
переклад: оригінал
кодек: DTS 5.1
бітрейт: 1510 кб/с
Субтитри # 1-2:
мова: англійська
тип: програмні (м'які)
формат: *.srt

MediaInfo:

General
Unique ID : 248936072907099828748821638259061023579 (0xBB4757FD0CEFFE3A8E14622F15E3E35B)
Complete name : M:\Майбутні релізи\Jennifer Eight (1992) BDRip 1080p [2xUkr Eng] [Sub Eng][Hurtom].mkv
Format : Matroska
Format version : Version 4 / Version 2
File size : 17.9 GiB
Duration : 2h 5mn
Overall bit rate : 20.4 Mbps
Movie name : Jennifer Eight (1992) BDRip 1080p 2xUkr/Eng | Sub Eng [Hurtom]
Encoded date : UTC 2016-12-10 10:37:18
Writing application : mkvmerge v9.5.0 ('Quiet Fire') 64bit
Writing library : libebml v1.3.4 + libmatroska v1.4.5
Attachements : cover.jpg
Video
ID : 1
Format : AVC
Format/Info : Advanced Video Codec
Format profile : [email protected]
Format settings, CABAC : Yes
Format settings, ReFrames : 4 frames
Codec ID : V_MPEG4/ISO/AVC
Duration : 2h 5mn
Bit rate : 18.5 Mbps
Width : 1 916 pixels
Height : 1 076 pixels
Display aspect ratio : 16:9
Frame rate mode : Constant
Frame rate : 23.976 (23976/1000) fps
Color space : YUV
Chroma subsampling : 4:2:0
Bit depth : 8 bits
Scan type : Progressive
Bits/(Pixel*Frame) : 0.374
Stream size : 16.2 GiB (91%)
Title : Jennifer Eight (1992) BDRip 1080p 2xUkr\Eng Sub Eng [Hurtom]
Writing library : x264 core 148 r2705+54 9f484c1 t_mod_Custom [[email protected] X86_64]
Encoding settings : cabac=1 / ref=4 / deblock=1:-3:-3 / analyse=0x3:0x133 / me=umh / subme=10 / psy=1 / fade_compensate=0.00 / psy_rd=1.00:0.05 / mixed_ref=1 / me_range=32 / chroma_me=1 / trellis=2 / 8x8dct=1 / cqm=0 / deadzone=21,11 / fast_pskip=0 / chroma_qp_offset=-3 / threads=6 / lookahead_threads=1 / sliced_threads=0 / nr=0 / decimate=1 / interlaced=0 / bluray_compat=0 / constrained_intra=0 / fgo=0 / bframes=8 / b_pyramid=2 / b_adapt=2 / b_bias=0 / direct=3 / weightb=1 / open_gop=0 / weightp=2 / keyint=250 / keyint_min=23 / scenecut=40 / intra_refresh=0 / rc=2pass / mbtree=0 / bitrate=18500 / ratetol=1.0 / qcomp=0.70 / qpmin=0:0:0 / qpmax=69:69:69 / qpstep=4 / cplxblur=20.0 / qblur=0.5 / ip_ratio=1.30 / pb_ratio=1.30 / aq=3:0.65 / aq-sensitivity=10.00 / aq-factor=1.00:1.00:1.00 / aq2=1:0.60 / aq2-sensitivity=15.00 / aq2-factor=1.00:1.00:1.00 / aq3=1:[0.50:0.50]:[0.50:0.50]:[0.50:0.50]:[0.50:0.50] / aq3-sensitivity=10.00 / aq3-factor=[1.00:1.00]:[1.00:1.00]:[1.00:1.00] / aq3-boundary=192:64:24
Language : English
Default : Yes
Forced : No
Color range : Limited
Matrix coefficients : BT.709
Audio #1
ID : 2
Format : AC-3
Format/Info : Audio Coding 3
Mode extension : CM (complete main)
Format settings, Endianness : Big
Codec ID : A_AC3
Duration : 2h 5mn
Bit rate mode : Constant
Bit rate : 192 Kbps
Channel(s) : 2 channels
Channel positions : Front: L R
Sampling rate : 48.0 KHz
Frame rate : 31.250 fps (1536 spf)
Compression mode : Lossy
Stream size : 172 MiB (1%)
Title : MVO Интер AC3, 2/0 (L,R) ch, 192 kbps
Language : Ukrainian
Default : No
Forced : Yes
Audio #2
ID : 3
Format : AC-3
Format/Info : Audio Coding 3
Mode extension : CM (complete main)
Format settings, Endianness : Big
Codec ID : A_AC3
Duration : 2h 5mn
Bit rate mode : Constant
Bit rate : 192 Kbps
Channel(s) : 2 channels
Channel positions : Front: L R
Sampling rate : 48.0 KHz
Frame rate : 31.250 fps (1536 spf)
Compression mode : Lossy
Stream size : 172 MiB (1%)
Title : DVO ICTV AC3, 2/0 (L,R) ch, 192 kbps
Language : Ukrainian
Default : Yes
Forced : Yes
Audio #3
ID : 4
Format : DTS
Format/Info : Digital Theater Systems
Mode : 16
Format settings, Endianness : Big
Codec ID : A_DTS
Duration : 2h 5mn
Bit rate mode : Constant
Bit rate : 1 510 Kbps
Channel(s) : 6 channels
Channel positions : Front: L C R, Side: L R, LFE
Sampling rate : 48.0 KHz
Frame rate : 93.750 fps (512 spf)
Bit depth : 24 bits
Compression mode : Lossy
Stream size : 1.32 GiB (7%)
Title : DTS, 3/2 (L,C,R,l,r) + LFE ch, ~1509 kbps
Language : English
Default : No
Forced : No
Text #1
ID : 5
Format : UTF-8
Codec ID : S_TEXT/UTF8
Codec ID/Info : UTF-8 Plain Text
Duration : 1h 58mn
Bit rate : 59 bps
Count of elements : 1381
Stream size : 51.4 KiB (0%)
Title : [SUB-ENG]
Language : English
Default : No
Forced : No
Text #2
ID : 6
Format : UTF-8
Codec ID : S_TEXT/UTF8
Codec ID/Info : UTF-8 Plain Text
Duration : 2h 2mn
Bit rate : 60 bps
Count of elements : 1473
Stream size : 54.6 KiB (0%)
Title : SDH
Language : English
Default : No
Forced : No

Скріншоти:




Джерело: &
Особиста оцінка: 0 - не дивився


Востаннє змінено staf777 (2021-12-31 20:25); всього редагувань: 1
[Профіль] [ПП]

Опублікувати 31-Гру-2021 20:25 (після 18 секунд)

Тему було перенесено з форуму Незабаром на трекері на форум Фільми HD, UHD
staf777
 

Hoetzendorf

Стаж: 1 рік 1 місяць

Повідомлень: 57

Звідки: нізвідки (соліпсизм тобі відомий?)

Опублікувати 31-Гру-2021 23:55 (після 3 годин)

[Цитувати]

Чудовий детективний триллер і одна з найкращих (небагатьох) ролей Уми Турман. На жаль деякі холівудські акторки дуже швидко з віком (причому доволі ще молодим) розтринькують свій талант (до купи — Дрю Берімор, Сірша Ронан).
10/10
[Профіль] [ПП]
Показати повідомлення:    
Відповісти в темі

Поточний час: 22-Січ 20:33

Часовий пояс: UTC + 2



Ви не можете створювати нові теми на форумі
Ви не можете відповідати в темах на форумі
Ви не можете редагувати свої повідомлення на форумі
Ви не можете голосувати в опитуваннях на форумі
Ви не можете прикріплювати файли
Ви не можете завантажувати файли