І мертві підуть (Сезон 1) / The Walking Dead (Season 1) (2010) BDRemux 1080p 2xUkr/Eng | Sub Eng

Відповісти в темі
 
Автор Повідомлення

staf777 ®

Стаж: 1 рік 1 місяць

Повідомлень: 1342

Опублікувати 30-Гру-2021 23:14

[Цитувати]

І мертві підуть (Сезон 1) / The Walking Dead (Season 1) (2010) BDRemux 1080p 2xUkr/Eng | Sub Eng
Жанр: жахи
Країна: США

Кінокомпанія / телеканал: AMC
Режисер: Френк Дарабонт
Актори/ролі озвучують: Джон Бернтал, Лорі Холдмен, Адам Мінарович, Майкл Рукер, Джефрі ДеМун
Сюжет: Після страшної хвороби, яка перетворила жителів Землі в зомбі, невелика група поки ще живих людей день у день бореться за виживання в новому, ворожому світі. Під проводом колишнього поліцейського Ріка вони шукають безпечне для життя місце, але зомбі - це не найстрашніше, що їх чекає, основна небезпека - це жорстоке внутрішнє суперництво серед тих, що вижили.-Тривалість: 1 серія: 45 хв (1 серія - 01:07:12) (цілком серій: 6)

Перелік серій:

1. Колишні дні / Days Gone Bye
2. Нутрощі / Guts
3. Розкажи це жабам / Tell It to the Frogs
4. Ватос / Vatos
5. Пекельний вогонь / Wildfire
6. ТС-19 / TS-19
-Якість: BDRemux 1080p
Відео:
кодек: H.264
розмір кадру:1920x1080
бітрейт: ~24900 кб/с
Аудіо # 1:
мова: українська
переклад: багатоголосий закадровий
кодек: DTS-HD MA 5.1
бітрейт: 2152 кб/с
Аудіо # 2:
мова: українська
переклад: професійний дубльований
кодек: AC3 5.1
бітрейт: 384 кб/с
Аудіо # 3:
мова: англійська
переклад: оригінал
кодек: TrueHD 5.1
бітрейт: 3754 кб/с
Субтитри:
мова: англійська
тип: пререндерні
формат: *.pgs

MediaInfo:

General
Unique ID : 237859726998056903436043835531804852807 (0xB2F21DF8E28CA4DAB7310F379A74C247)
Complete name : H:\HDClub\The Walking Dead.S01E02.[2xUkr,Eng sub.Eng] BDRemux 1080p [Hurtom].mkv
Format : Matroska
Format version : Version 4 / Version 2
File size : 9.75 GiB
Duration : 44 min 42 s
Overall bit rate mode : Variable
Overall bit rate : 31.2 Mb/s
Movie name : The Walking Dead.S01E02.[2xUkr,Eng sub.Eng] BDRemux 1080p [Hurtom]
Encoded date : UTC 2017-03-06 18:38:38
Writing application : mkvmerge v9.8.0 ('Kuglblids') 64bit
Writing library : libebml v1.3.4 + libmatroska v1.4.5
Video
ID : 1
Format : AVC
Format/Info : Advanced Video Codec
Format profile : [email protected]
Format settings, CABAC : Yes
Format settings, ReFrames : 2 frames
Codec ID : V_MPEG4/ISO/AVC
Duration : 44 min 40 s
Bit rate mode : Variable
Bit rate : 24.9 Mb/s
Width : 1 920 pixels
Height : 1 080 pixels
Display aspect ratio : 16:9
Frame rate mode : Constant
Frame rate : 23.976 (24000/1001) FPS
Color space : YUV
Chroma subsampling : 4:2:0
Bit depth : 8 bits
Scan type : Progressive
Bits/(Pixel*Frame) : 0.500
Stream size : 7.76 GiB (80%)
Default : Yes
Forced : No
Audio #1
ID : 2
Format : DTS
Format/Info : Digital Theater Systems
Format profile : MA / Core
Mode : 16
Format settings, Endianness : Big
Codec ID : A_DTS
Duration : 44 min 40 s
Bit rate mode : Variable / Constant
Bit rate : 2 152 kb/s / 1 509 kb/s
Channel(s) : 6 channels
Channel positions : Front: L C R, Side: L R, LFE
Sampling rate : 48.0 kHz
Frame rate : 93.750 FPS (512 spf)
Bit depth : 16 bits
Compression mode : Lossless / Lossy
Stream size : 688 MiB (7%)
Language : Ukrainian
Default : Yes
Forced : Yes
Audio #2
ID : 3
Format : AC-3
Format/Info : Audio Coding 3
Mode extension : CM (complete main)
Format settings, Endianness : Big
Codec ID : A_AC3
Duration : 44 min 42 s
Bit rate mode : Constant
Bit rate : 384 kb/s
Channel(s) : 6 channels
Channel positions : Front: L C R, Side: L R, LFE
Sampling rate : 48.0 kHz
Frame rate : 31.250 FPS (1536 spf)
Bit depth : 16 bits
Compression mode : Lossy
Stream size : 123 MiB (1%)
Language : Ukrainian
Default : No
Forced : No
Audio #3
ID : 4
Format : TrueHD
Codec ID : A_TRUEHD
Duration : 44 min 40 s
Bit rate mode : Variable
Bit rate : 3 754 kb/s
Maximum bit rate : 5 115 kb/s
Channel(s) : 6 channels
Channel positions : Front: L C R, Side: L R, LFE
Sampling rate : 48.0 kHz
Frame rate : 1 200.000 FPS (40 spf)
Compression mode : Lossless
Stream size : 1.17 GiB (12%)
Language : English
Default : No
Forced : No
Text
ID : 5
Format : PGS
Muxing mode : zlib
Codec ID : S_HDMV/PGS
Codec ID/Info : Picture based subtitle format used on BDs/HD-DVDs
Duration : 44 min 19 s
Bit rate : 12.9 kb/s
Count of elements : 1157
Stream size : 4.09 MiB (0%)
Language : English
Default : No
Forced : No

Скріншоти:




Джерело: &
Схожі релізи
Додано Роздачі Розмір Сід | Ліч
01-Січ-22 21:15 Мертва тиша [Розширена версія] / Dead Silence [Unrated] (2007) BDRip 1080p 2xUkr/Eng | Sub Eng 11.86 GB |


Востаннє змінено staf777 (2021-12-30 23:31); всього редагувань: 1
[Профіль] [ПП]

Опублікувати 30-Гру-2021 23:30 (після 16 хвилин)

Тему було перенесено з форуму Незабаром на трекері на форум Фільми HD, UHD
staf777
 

Опублікувати 30-Гру-2021 23:31 (після 16 хвилин)

Тему було перенесено з форуму Фільми HD, UHD на форум Серіали HD, UHD
staf777
 
Показати повідомлення:    
Відповісти в темі

Поточний час: 22-Січ 19:42

Часовий пояс: UTC + 2



Ви не можете створювати нові теми на форумі
Ви не можете відповідати в темах на форумі
Ви не можете редагувати свої повідомлення на форумі
Ви не можете голосувати в опитуваннях на форумі
Ви не можете прикріплювати файли
Ви не можете завантажувати файли