Агенти справедливості: Несправедливо засуджений / Chronicle Mysteries: The Wrong Man (2019) HDTVRip 1080p

Відповісти в темі
Список завантажень та торрент активність
Завершено: [ 1 ]
 
   
 
 
Автор Повідомлення

sergiyko ®

Стаж: 5 місяців 19 днів

Повідомлень: 827

Опублікувати 28-Лис-2020 20:38

[Цитувати]

Агенти справедливості: Несправедливо засуджений / Chronicle Mysteries: The Wrong Man (2019) HDTVRip 1080p
Жанр: детектив, кримінальний
Країна: США, It's a Mystery, Lighthouse Pictures
Режисер: Террі Інгрем
Актори: Елісон Суїні, Бенджамін Ейрс, Пітер Бенсон, Джейсон Буркарт, Дейв Коллетт, Карен Холнесс, Тобі Левінс, Ліза Макфадден, Джессі Мосс, Марко Соріано
Сюжет:
Через три роки після зникнення було знайдено тіло дівчини. Раніше її чоловік був виправданий, оскільки доказів не було, але тепер його визнали винним, і він просить Алекс Макпірсон про допомогу. Поки вона веде розслідування для свого подкасту, її колеги паралельно займаються підозрілою транспортною компанією. Обидві справи не тільки пов'язані між собою, але і приймають неймовірний поворот в ході розслідування.

Тривалість: 01:25:53
Якість: HDTVRip
Озвучення: багатоголосе закадрове (Індиго ТБ)
Відео: H.264 1920х1080 3900 кб/с
Аудіо: AAC 2.0 192 кб/с - українська
Запис: sergiyko

Про файл:

General
Unique ID : 290609267404946259454594657109101388826 (0xDAA14F1C02CA10F0A2A303BE605E241A)
Complete name : D:\Chronicle Mysteries.The Wrong Man.2019.1080p.HDTVRip-mazepa.mkv
Format : Matroska
Format version : Version 4
File size : 2.48 GiB
Duration : 1 h 25 min
Overall bit rate mode : Variable
Overall bit rate : 4 139 kb/s
Movie name : rip by mazepa.to
Encoded date : UTC 2020-11-28 17:32:55
Writing application : mkvmerge v48.0.0 ('Fortress Around Your Heart') 64-bit
Writing library : libebml v1.4.0 + libmatroska v1.6.0
Video
ID : 1
Format : AVC
Format/Info : Advanced Video Codec
Format profile : [email protected]
Format settings : CABAC / 3 Ref Frames
Format settings, CABAC : Yes
Format settings, Reference : 3 frames
Format settings, GOP : M=1, N=50
Codec ID : V_MPEG4/ISO/AVC
Duration : 1 h 25 min
Bit rate mode : Variable
Bit rate : 3 895 kb/s
Maximum bit rate : 4 799 kb/s
Width : 1 920 pixels
Height : 1 080 pixels
Display aspect ratio : 16:9
Frame rate mode : Constant
Frame rate : 25.000 FPS
Color space : YUV
Chroma subsampling : 4:2:0
Bit depth : 8 bits
Scan type : Progressive
Bits/(Pixel*Frame) : 0.075
Stream size : 2.34 GiB (94%)
Language : English
Default : Yes
Forced : No
Audio
ID : 2
Format : AAC LC
Format/Info : Advanced Audio Codec Low Complexity
Codec ID : A_AAC-2
Duration : 1 h 25 min
Bit rate : 241 kb/s
Channel(s) : 2 channels
Channel layout : L R
Sampling rate : 44.1 kHz
Frame rate : 43.066 FPS (1024 SPF)
Compression mode : Lossy
Stream size : 148 MiB (6%)
Title : MVO AAC 2ch | Індиго ТБ
Language : Ukrainian
Default : Yes
Forced : No
Скріншоти:
Схожі релізи
Додано Роздачі Розмір Сід | Ліч
28-Лис-20 14:33 Агенти справедливості: Розгадки / Chronicle Mysteries: Recovered (2019) HDTVRip 1080p 2.46 GB |
24-Лис-20 11:50 Агенти справедливості: Розгадки / Chronicle Mysteries: Recovered (2019) HDTVRip 788 MB |
24-Лис-20 11:40 Агенти справедливості: Несправедливо засуджений / Chronicle Mysteries: The Wrong Man (2019) HDTVRip 789 MB |
[Профіль] [ПП]
Показати повідомлення:    
Відповісти в темі

Поточний час: 08-Тра 17:24

Часовий пояс: UTC + 2



Ви не можете створювати нові теми на форумі
Ви не можете відповідати в темах на форумі
Ви не можете редагувати свої повідомлення на форумі
Ви не можете голосувати в опитуваннях на форумі
Ви не можете прикріплювати файли
Ви не можете завантажувати файли