Агенти справедливості: Розгадки / Chronicle Mysteries: Recovered (2019) HDTVRip 1080p

Відповісти в темі
 
Автор Повідомлення

sergiyko ®

Стаж: 8 місяців 12 днів

Повідомлень: 946

Опублікувати 28-Лис-2020 14:33

[Цитувати]

Агенти справедливості: Розгадки / Chronicle Mysteries: Recovered (2019) HDTVRip 1080p
Жанр: детектив, кримінальний
Країна: США, Crown Media Productions
Режисер: Джейсон Бурк
Актори: Бенджамін Ейрс, Ребекка Стааб, Олівія Стіл Фальконе, Метт Беллефло, Дейв Коллетт, Ліза Дурупт, Карен Холнесс, Стефанія Інделікато, Дін Редман, Крістофер Розамунд
Сюжет:
Алекс Макферсон повертається в маленьке містечко в Пенсільванії, де вона провела літо в дитинстві, щоб записати наступний епізод свого справжнього кримінального подкасту про зникнення друга дитинства 20 років тому. Однак, після об'єднання з редактором місцевої газети, який неохоче погоджується допомогти їй простежити останні кроки дівчинки, Алекс не тільки розкриває шокуючу правду, що стоїть за зникненням дівчинки, але також і вбивство десятирічної давності і її приховування.

Тривалість: 01:24:59
Якість: HDTVRip
Озвучення: багатоголосе закадрове (Індиго ТБ)
Відео: H.264 1920х1080 3900 кб/с
Аудіо: AAC 2.0 256 кб/с
Запис: sergiyko

Про файл:

General
Unique ID : 240590322992870186375689087486857036833 (0xB50002BFBCB523AABE99909DB303C421)
Complete name : D:\Chronicle Mysteries.Recovered.2019.1080p.HDTVRip-mazepa.mkv
Format : Matroska
Format version : Version 4
File size : 2.46 GiB
Duration : 1 h 24 min
Overall bit rate mode : Variable
Overall bit rate : 4 140 kb/s
Movie name : Chronicle Mysteries.Recovered 2019 rip by mazepa.to
Encoded date : UTC 2020-11-28 12:28:30
Writing application : mkvmerge v48.0.0 ('Fortress Around Your Heart') 64-bit
Writing library : libebml v1.4.0 + libmatroska v1.6.0
Video
ID : 1
Format : AVC
Format/Info : Advanced Video Codec
Format profile : [email protected]
Format settings : CABAC / 3 Ref Frames
Format settings, CABAC : Yes
Format settings, Reference : 3 frames
Format settings, GOP : M=1, N=50
Codec ID : V_MPEG4/ISO/AVC
Duration : 1 h 24 min
Bit rate mode : Variable
Bit rate : 3 897 kb/s
Maximum bit rate : 4 799 kb/s
Width : 1 920 pixels
Height : 1 080 pixels
Display aspect ratio : 16:9
Frame rate mode : Constant
Frame rate : 25.000 FPS
Color space : YUV
Chroma subsampling : 4:2:0
Bit depth : 8 bits
Scan type : Progressive
Bits/(Pixel*Frame) : 0.075
Stream size : 2.31 GiB (94%)
Language : English
Default : Yes
Forced : No
Audio
ID : 2
Format : AAC LC
Format/Info : Advanced Audio Codec Low Complexity
Codec ID : A_AAC-2
Duration : 1 h 24 min
Bit rate : 241 kb/s
Channel(s) : 2 channels
Channel layout : L R
Sampling rate : 44.1 kHz
Frame rate : 43.066 FPS (1024 SPF)
Compression mode : Lossy
Stream size : 146 MiB (6%)
Title : MVO AAC 2ch
Language : Ukrainian
Default : Yes
Forced : No
Скріншоти:
Схожі релізи
Додано Роздачі Розмір Сід | Ліч
28-Лис-20 20:38 Агенти справедливості: Несправедливо засуджений / Chronicle Mysteries: The Wrong Man (2019) HDTVRip 1080p 2.48 GB |
26-Лис-20 17:50 Агент Єва / Ava (2020) BDRip 1080p Ukr/Eng 7.52 GB |
24-Лис-20 11:50 Агенти справедливості: Розгадки / Chronicle Mysteries: Recovered (2019) HDTVRip 788 MB |
24-Лис-20 11:40 Агенти справедливості: Несправедливо засуджений / Chronicle Mysteries: The Wrong Man (2019) HDTVRip 789 MB |
[Профіль] [ПП]
Показати повідомлення:    
Відповісти в темі

Поточний час: 31-Лип 10:08

Часовий пояс: UTC + 2



Ви не можете створювати нові теми на форумі
Ви не можете відповідати в темах на форумі
Ви не можете редагувати свої повідомлення на форумі
Ви не можете голосувати в опитуваннях на форумі
Ви не можете прикріплювати файли
Ви не можете завантажувати файли