Качині історії / DuckTales (Сезон 2) (2018) WEB-DLRip

Відповісти в темі
 
Автор Повідомлення

sergiyko ®

Стаж: 8 місяців 7 днів

Повідомлень: 943

Опублікувати 28-Лис-2020 11:53

[Цитувати]

Качині історії / DuckTales (Сезон 2) (2018) WEB-DLRip
Жанр: пригоди, комедія
Країна: США
Кінокомпанія: Disney Television Animation
Режисер: Дана Тіррас
Сюжет:
Жадібний, але добродушний багатій Скрудж МакДак, який має власний грошовий басейн, постійно потрапляє у халепи… Але йому завжди допомагають племінники – Крячик, Квачик і Кручик. Скрудж – найзаможніший качур у світі, та все одно постійно шукає шляхи для збільшення свого капіталу. А разом із капіталом росте й кількість заздрісників, що бажають Скруджу МакДаку якнайшвидше збанкротувати. Тому він і стає жадібним скнарою для всіх оточуючих, але залишається добрим дядечком для своїх племінників.
IMDb 8,2/10 6470
Тривалість: 1 серія: 21:40 (цілком серій: 24 з 24)
Якість: WEB-DL
Озвучення: професійне дубльоване (ПлюсПлюс)
Відео: H264 1024x576 1000Kbps
Аудіо: AC3 2.0ch 192Kbps - українська
Примітка: українська доріжка записана з трансляції телеканала ПлюсПлюс і синхронізована під HD відео, звук не розтягувався і не змінювався тон.
Запис/зведення: sergiyko

Перелік серій:

01 The Most Dangerous Game... Night
02 The Depths of Cousin Fethry
03 The Ballad of Duke Baloney
04 The Town Where Everyone Was Nice
05 Storkules in Duckburg
06 Last Christmas
07 What Ever Happened to Della Duck
08 Friendship Hates Magic
09 Treasure of the Found Lamp
10 The Outlaw Scrooge McDuck
11 The 87 Cent Solution
12 The Golden Spear
13 Nothing Can Stop Della Duck
14 Raiders of the Doomsday Vault
15 The Dangerous Chemistry of Gandra Dee
16 The Duck Knight Returns
17 Happy Birthday Doofus Drake
18 What Ever Happened to Donald Duck
19 A Nightmare on Killmotor Hill
20 The Golden Armory of Cornelius Coot
21 Timephoon
22 GlomTales
23 The Richest Duck in the World
24 Moonvasion

Про файл:

General
Unique ID : 112471099031856935845831786934834435349 (0x549D254FE543A877BFA8B06E3B121515)
Complete name : D:\Documents\Torrents\MULTSER_2\DuckTales S02 WEB-DLRip\S02E01.The.Most.Dangerous.Game...Night.WEB-DLRip.mkv
Format : Matroska
Format version : Version 4
File size : 182 MiB
Duration : 21 min 36 s
Overall bit rate : 1 175 kb/s
Movie name : DuckTales S02 1080p WEB-DL by sergiyko
Writing application : Lavf58.42.101
Writing library : Lavf58.42.101
ErrorDetectionType : Per level 1
Video
ID : 1
Format : AVC
Format/Info : Advanced Video Codec
Format profile : [email protected]
Format settings : CABAC / 7 Ref Frames
Format settings, CABAC : Yes
Format settings, Reference : 7 frames
Codec ID : V_MPEG4/ISO/AVC
Duration : 21 min 36 s
Bit rate : 5 337 kb/s
Width : 1 024 pixels
Height : 576 pixels
Display aspect ratio : 16:9
Frame rate mode : Constant
Frame rate : 25.000 FPS
Color space : YUV
Chroma subsampling : 4:2:0
Bit depth : 8 bits
Scan type : Progressive
Bits/(Pixel*Frame) : 0.362
Stream size : 825 MiB
Title : S02E01.The.Most.Dangerous.Game...Night
Writing library : x264 core 159
Encoding settings : cabac=1 / ref=7 / deblock=1:0:0 / analyse=0x3:0x133 / me=umh / subme=10 / psy=1 / psy_rd=1.00:0.00 / mixed_ref=1 / me_range=24 / chroma_me=1 / trellis=2 / 8x8dct=1 / cqm=0 / deadzone=21,11 / fast_pskip=1 / chroma_qp_offset=-2 / threads=18 / lookahead_threads=3 / sliced_threads=0 / nr=0 / decimate=1 / interlaced=0 / bluray_compat=0 / constrained_intra=0 / bframes=8 / b_pyramid=2 / b_adapt=2 / b_bias=0 / direct=3 / weightb=1 / open_gop=0 / weightp=2 / keyint=250 / keyint_min=25 / scenecut=40 / intra_refresh=0 / rc_lookahead=60 / rc=crf / mbtree=1 / crf=20.0 / qcomp=0.60 / qpmin=0 / qpmax=69 / qpstep=4 / ip_ratio=1.40 / aq=1:1.00
Language : English
Default : Yes
Forced : No
Audio
ID : 2
Format : AC-3
Format/Info : Audio Coding 3
Commercial name : Dolby Digital
Codec ID : A_AC3
Duration : 21 min 36 s
Bit rate mode : Constant
Bit rate : 192 kb/s
Channel(s) : 2 channels
Channel layout : L R
Sampling rate : 48.0 kHz
Frame rate : 31.250 FPS (1536 SPF)
Bit depth : 32 bits
Compression mode : Lossy
Stream size : 29.7 MiB (16%)
Title : DUB AC3 2ch | ПлюсПлюс
Language : Ukrainian
Service kind : Complete Main
Default : Yes
Forced : Yes
Скріншоти:
Схожі релізи
Додано Роздачі Розмір Сід | Ліч
26-Лют-21 09:56 Качині історії / DuckTales (Сезон 3) (2020) WEB-DL 1080p Ukr/Eng 18.87 GB 2 | 0
28-Лис-20 11:59 Качині історії / DuckTales (Сезон 1) (2017) WEB-DLRip 5.05 GB |
28-Лис-20 11:46 Качині історії / DuckTales (Сезон 1) (2017) WEB-DL 1080p Ukr/Eng 19.56 GB |
28-Лис-20 11:42 Качині історії / DuckTales (Сезон 2) (2018) WEB-DL 1080p Ukr/Eng 21.6 GB |


Востаннє редаговано sergiyko (2021-07-06 11:13); всього редаговано 2 разів
[Профіль] [ПП]

Аквамен

Стаж: 7 місяців 28 днів

Повідомлень: 23

Опублікувати 03-Гру-2020 15:46 (після 5 днів)

[Цитувати]

3 сезон канал ще не транслював?
[Профіль] [ПП]

sergiyko ®

Стаж: 8 місяців 7 днів

Повідомлень: 943

Опублікувати 03-Гру-2020 17:52 (після 2 годин 5 хвилин)

[Цитувати]

2623 сезон канал ще не транслював?
Ні
[Профіль] [ПП]
Показати повідомлення:    
Відповісти в темі

Поточний час: 26-Лип 07:06

Часовий пояс: UTC + 2



Ви не можете створювати нові теми на форумі
Ви не можете відповідати в темах на форумі
Ви не можете редагувати свої повідомлення на форумі
Ви не можете голосувати в опитуваннях на форумі
Ви не можете прикріплювати файли
Ви не можете завантажувати файли