Скажене весілля 3 (2021) WEB-DLRip 720p

Тема заблокована
 
Автор Повідомлення

Andretti ®

Стаж: 3 місяців 8 днів

Повідомлень: 25

Опублікувати 03-Тра-2021 22:35

[Цитувати]

Скажене весілля 3 (2021) WEB-DLRip 720p
Жанр: Комедія
Випущено: Україна, Film.UA
Режисер: Любомир Левицький
В ролях: Катерина Файн, В'ячеслав Хостікоєв, Назар Задніпровський, Леся Самаєва, Поліна Василина, Джиммі Воха-Воха, Юрій Горбунов, Ігор Крикунов, Римма Шаповалова, Олександр Кобзар, Віра Кобзар, Інна Приходько, Арам Арзуманян, Олексій Супрун, Потап, Позитив, Петро Чорний, Олег Винник, Надія Мейхер, Валерія Товстолєс.
Опис: Промайнуло чотири роки після останнього Скаженого весілля, і ось стати на рушничок щастя планує наймолодший з родини Середюків — Захар. Традиційно для дітей Василя, для створення сім'ї він обрав «екзотичну пару» — дочку циганського барона, красуню Раду. І хоч батько заприсягнув цього разу не псувати весілля, та і невістка йому до вподоби, але спокійне свято — не в традиціях Середюків.
Тривалість: 01:36:43
Якість відео: WEB-DLRip 720p
Озвучення: оригінальне
Відео: H.264 1280х536 2950Kbps
Аудіо: AAC 2.0ch 192Kbps

Скріншоти:

MediaInfo:

General
Unique ID : 144008341754874526398468331496763645870 (0x6C56FF6D60C6DCF63CB581E3B9F15FAE)
Complete name : C:\Users\User\Downloads\Скажене весілля 3.2021.WEB-DLRip.720p-Mazepa.mkv
Format : Matroska
Format version : Version 4
File size : 2.12 GiB
Duration : 1 h 36 min
Overall bit rate : 3 141 kb/s
Encoded date : UTC 2021-05-03 20:29:18
Writing application : mkvmerge v56.1.0 ('My Friend') 64-bit
Writing library : libebml v1.4.2 + libmatroska v1.6.4
Video
ID : 1
Format : AVC
Format/Info : Advanced Video Codec
Format profile : [email protected]
Format settings : CABAC / 12 Ref Frames
Format settings, CABAC : Yes
Format settings, Reference frames : 12 frames
Codec ID : V_MPEG4/ISO/AVC
Duration : 1 h 36 min
Bit rate : 2 950 kb/s
Width : 1 280 pixels
Height : 536 pixels
Display aspect ratio : 2.40:1
Frame rate mode : Constant
Frame rate : 25.000 FPS
Color space : YUV
Chroma subsampling : 4:2:0
Bit depth : 8 bits
Scan type : Progressive
Bits/(Pixel*Frame) : 0.172
Stream size : 1.99 GiB (94%)
Writing library : x264 core 157 r2969 d4099dd
Encoding settings : cabac=1 / ref=12 / deblock=1:-1:-2 / analyse=0x3:0x133 / me=umh / subme=11 / psy=1 / psy_rd=1.00:0.15 / mixed_ref=0 / me_range=48 / chroma_me=1 / trellis=2 / 8x8dct=1 / cqm=0 / deadzone=21,11 / fast_pskip=0 / chroma_qp_offset=-3 / threads=17 / lookahead_threads=2 / sliced_threads=0 / nr=0 / decimate=0 / interlaced=0 / bluray_compat=0 / constrained_intra=0 / bframes=8 / b_pyramid=2 / b_adapt=2 / b_bias=0 / direct=3 / weightb=1 / open_gop=0 / weightp=2 / keyint=250 / keyint_min=25 / scenecut=40 / intra_refresh=0 / rc_lookahead=60 / rc=2pass / mbtree=1 / bitrate=2950 / ratetol=1.0 / qcomp=0.60 / qpmin=0 / qpmax=69 / qpstep=4 / cplxblur=20.0 / qblur=0.5 / vbv_maxrate=62500 / vbv_bufsize=78125 / nal_hrd=none / filler=0 / ip_ratio=1.40 / aq=1:1.00
Default : Yes
Forced : No
Audio
ID : 2
Format : AAC LC
Format/Info : Advanced Audio Codec Low Complexity
Codec ID : A_AAC-2
Duration : 1 h 36 min
Bit rate : 192 kb/s
Channel(s) : 2 channels
Channel layout : L R
Sampling rate : 48.0 kHz
Frame rate : 46.875 FPS (1024 SPF)
Compression mode : Lossy
Stream size : 131 MiB (6%)
Language : Ukrainian
Default : Yes
Forced : No
[Профіль] [ПП]

Андрій

Стаж: 8 місяців 16 днів

Повідомлень: 69

Опублікувати 04-Тра-2021 07:37 (після 9 годин)

[Цитувати]

Andretti, якщо вашим сирцем до ріпу був перший варіант цього релізу https://mazepa.to/viewtopic.php?t=772 ваш треба переробити через помилки в першому.
[Профіль] [ПП]

Опублікувати 10-Тра-2021 21:19 (після 6 днів)

Тему було перенесено з форуму Українські фільми HD, UHD на форум Архів
Андрій
 
Показати повідомлення:    
Тема заблокована

Поточний час: 04-Сер 15:44

Часовий пояс: UTC + 2



Ви не можете створювати нові теми на форумі
Ви не можете відповідати в темах на форумі
Ви не можете редагувати свої повідомлення на форумі
Ви не можете голосувати в опитуваннях на форумі
Ви не можете прикріплювати файли
Ви не можете завантажувати файли