Безславні кріпаки (2020) WEB-DLRip 720p

Відповісти в темі
Список завантажень та торрент активність
Завантажую: [ 3 ]
Завершено: [ 2 ]
 
   
 
 
Автор Повідомлення

Andretti ®

Стаж: 10 днів

Повідомлень: 6

Опублікувати 03-Тра-2021 18:10

[Цитувати]

Безславні кріпаки (2020) WEB-DLRip 720p
Жанр: пригоди, комедія, бойовик
Випущено: Україна, Крісті фільм, Star Media
Режисер: Роман Перфільєв
В ролях: Роман Луцький, Сергій Стрельников, Андрій Малінович, Андрій Борис, Яків Ткаченко, Ген Сето, Катерина Слюсар, Олександр Мірошниченко, Дмитро Евердін, Юрій Чеботарьов
Опис: 1844 рік. Рятуючись від переслідування імператора Японії, на територію України потрапляє самурай. Випадково він знайомиться з молодим Тарасом Шевченком, якого вирішує навчити прийомів традиційних японських бойових мистецтв. Разом герої починають боротися за свободу українського народу.
Тривалість: 01:30:00
Якість відео: WEB-DLRip 720p
Озвучення: оригінальне
Відео: H.264 1280х536 2749Kbps
Аудіо: AAC 5.1ch 256Kbps

Скріншоти:

Mediainfo:

General
Unique ID : 204357775825799785825689914396031528607 (0x99BDE0406E2760B9D56F89FDE5C72E9F)
Complete name : C:\Users\User\Desktop\Безславні кріпаки (2020) WEB-DLRip 720p [Ukr] [Mazepa] .mkv
Format : Matroska
Format version : Version 4
File size : 1.89 GiB
Duration : 1 h 30 min
Overall bit rate : 3 007 kb/s
Encoded date : UTC 2021-05-03 15:21:45
Writing application : mkvmerge v56.1.0 ('My Friend') 64-bit
Writing library : libebml v1.4.2 + libmatroska v1.6.4
Video
ID : 1
Format : AVC
Format/Info : Advanced Video Codec
Format profile : [email protected]
Format settings : CABAC / 16 Ref Frames
Format settings, CABAC : Yes
Format settings, Reference frames : 16 frames
Codec ID : V_MPEG4/ISO/AVC
Duration : 1 h 30 min
Bit rate : 2 749 kb/s
Width : 1 280 pixels
Height : 536 pixels
Display aspect ratio : 2.40:1
Frame rate mode : Constant
Frame rate : 24.000 FPS
Color space : YUV
Chroma subsampling : 4:2:0
Bit depth : 8 bits
Scan type : Progressive
Bits/(Pixel*Frame) : 0.167
Stream size : 1.73 GiB (91%)
Writing library : x264 core 157 r2969 d4099dd
Encoding settings : cabac=1 / ref=16 / deblock=1:-1:-2 / analyse=0x3:0x133 / me=umh / subme=11 / psy=1 / psy_rd=1.00:0.15 / mixed_ref=0 / me_range=48 / chroma_me=1 / trellis=2 / 8x8dct=1 / cqm=0 / deadzone=21,11 / fast_pskip=0 / chroma_qp_offset=-3 / threads=12 / lookahead_threads=2 / sliced_threads=0 / nr=0 / decimate=0 / interlaced=0 / bluray_compat=0 / constrained_intra=0 / bframes=8 / b_pyramid=2 / b_adapt=2 / b_bias=0 / direct=3 / weightb=1 / open_gop=0 / weightp=2 / keyint=240 / keyint_min=24 / scenecut=40 / intra_refresh=0 / rc_lookahead=60 / rc=2pass / mbtree=1 / bitrate=2749 / ratetol=1.0 / qcomp=0.60 / qpmin=0 / qpmax=69 / qpstep=4 / cplxblur=20.0 / qblur=0.5 / ip_ratio=1.40 / aq=1:1.00
Default : Yes
Forced : No
Audio
ID : 2
Format : AAC LC
Format/Info : Advanced Audio Codec Low Complexity
Codec ID : A_AAC-2
Duration : 1 h 30 min
Bit rate : 256 kb/s
Channel(s) : 6 channels
Channel layout : C L R Ls Rs LFE
Sampling rate : 44.1 kHz
Frame rate : 43.066 FPS (1024 SPF)
Compression mode : Lossy
Stream size : 165 MiB (9%)
Language : Ukrainian
Default : Yes
Forced : No
Схожі релізи
Додано Роздачі Розмір Сід | Ліч
28-Бер-21 01:18 Безславні кріпаки (2020) WEB-DLRip 1.1 GB 4 | 0
28-Бер-21 00:11 Безславні кріпаки (2020) WEB-DL 1080p 3.06 GB 12 | 0
[Профіль] [ПП]
Показати повідомлення:    
Відповісти в темі

Поточний час: 06-Тра 18:49

Часовий пояс: UTC + 2



Ви не можете створювати нові теми на форумі
Ви не можете відповідати в темах на форумі
Ви не можете редагувати свої повідомлення на форумі
Ви не можете голосувати в опитуваннях на форумі
Ви не можете прикріплювати файли
Ви не можете завантажувати файли