Стань одним з нас!
 

Anonymous

Луїза Спаньйолі / Luisa Spagnoli (2016) HDTVRip-AVC Ukr/Ita Жанр: драма
Країна: Італія

Кінокомпанія: Moviheart
Режисер: Лодовіко Гаспаріні
Актори: Луїза Раньєрі, Вінічо Маркіоні, Маттео Мартарі, Елена Радоничіч, Массімо Даппорто, Джанмарко Тоньяцці, Франко Кастеллано (II), Федеріка ДеКола, Антонелло Фассарі, Бренно Плачідо, Сімонетта Сольдер, Тетяна Лепоре, Лессон, Алессандр , Джамп'єро Ротолі, Стефано Скеріні, Марціо Романо Фальчоне
Сюжет:Фільм розповідає про життя Луїзи Спаньйолі, засновниці знаменитого бренду "Луїза Спаньйолі".
Луїза Спаньйолі, молода домогосподарка з Перуджі, у 1907 році відкриває у місті кондитерську фабрику, на якій стали виготовляти знамениті шоколадні цукерки "Bacci Perugina". Пізніше, після покупки ангорської породи кроликів, пряжа з шерсті яких стає основною сировиною для виготовлення одягу, Луїза робить перші кроки у світі моди.
Тривалість: 01:46:42 + 01:47:57
Якість: HDTVRip
Відео:
кодек: H.264
розмір кадру: 1 024 х 576 + 720 x 404
бітрейт: 1 800 + 1 501 кб/с
Аудіо # 1:
мова: українська
переклад: багатоголосий закадровий UA:Культура
кодек: AC3 2.0
бітрейт: 192 кб/с
Аудіо # 2:
мова: італійська
переклад: оригінал
кодек: AAC 2.0
бітрейт: 93 кб/с

Скріншоти















Файл 1 General
Unique ID : 217156169831599042860908058000866653822 (0xA35EC1CB52AB67A769667BF2BA4BB67E)
Complete name : C:\Code\Luisa Spagnoli (2016) [Ukr,Ita] HDTVRip-AVC [Hurtom]\Luisa Spagnoli (2016) [Ukr,Ita] HDTVRip-AVC [Hurtom] p.1.mkv
Format : Matroska
Format version : Version 4
File size : 1.55 GiB
Duration : 1 h 46 min
Overall bit rate : 2 086 kb/s
Movie name : Луїза Спаньйолі/ Luisa Spagnoli (2016)
Encoded date : UTC 2021-12-18 18:32:37
Writing application : mkvmerge v53.0.0 ('Fool's Gold') 64-bit
Writing library : libebml v1.4.1 + libmatroska v1.6.2
Cover : Yes
Attachments : cover.jpg
Video
ID : 1
Format : AVC
Format/Info : Advanced Video Codec
Format profile : [email protected]
Format settings : CABAC / 3 Ref Frames
Format settings, CABAC : Yes
Format settings, Reference : 3 frames
Format settings, GOP : M=3, N=25
Codec ID : V_MPEG4/ISO/AVC
Duration : 1 h 46 min
Bit rate mode : Constant
Bit rate : 1 800 kb/s
Width : 1 024 pixels
Height : 576 pixels
Display aspect ratio : 16:9
Frame rate mode : Constant
Frame rate : 25.000 FPS
Standard : Component
Color space : YUV
Chroma subsampling : 4:2:0
Bit depth : 8 bits
Scan type : Progressive
Bits/(Pixel*Frame) : 0.122
Stream size : 1.34 GiB (86%)
Default : Yes
Forced : No
Color range : Limited
Audio #1
ID : 2
Format : AC-3
Format/Info : Audio Coding 3
Commercial name : Dolby Digital
Codec ID : A_AC3
Duration : 1 h 46 min
Bit rate mode : Constant
Bit rate : 192 kb/s
Channel(s) : 2 channels
Channel layout : L R
Sampling rate : 48.0 kHz
Frame rate : 31.250 FPS (1536 SPF)
Compression mode : Lossy
Delay relative to video : -40 ms
Stream size : 147 MiB (9%)
Language : Ukrainian
Service kind : Complete Main
Default : Yes
Forced : Yes
Audio #2
ID : 3
Format : AAC LC
Format/Info : Advanced Audio Codec Low Complexity
Codec ID : A_AAC-2
Duration : 1 h 46 min
Bit rate : 93.6 kb/s
Channel(s) : 2 channels
Channel layout : L R
Sampling rate : 44.1 kHz
Frame rate : 43.066 FPS (1024 SPF)
Compression mode : Lossy
Delay relative to video : -40 ms
Stream size : 71.5 MiB (4%)
Language : Italian
Default : No
Forced : No
Файл 2 General
Unique ID : 134655214609620582033601369204388111259 (0x654DA6A7D5B55AB898B68E48F60DA39B)
Complete name : C:\Code\Luisa Spagnoli (2016) [Ukr,Ita] HDTVRip-AVC [Hurtom]\Luisa Spagnoli (2016) [Ukr,Ita] HDTVRip-AVC [Hurtom] p.2.mkv
Format : Matroska
Format version : Version 4
File size : 1.35 GiB
Duration : 1 h 47 min
Overall bit rate : 1 791 kb/s
Movie name : Луїза Спаньйолі / Luisa Spagnoli (2016)
Encoded date : UTC 2021-12-18 18:37:21
Writing application : mkvmerge v53.0.0 ('Fool's Gold') 64-bit
Writing library : libebml v1.4.1 + libmatroska v1.6.2
Cover : Yes
Attachments : cover.jpg
Video
ID : 1
Format : AVC
Format/Info : Advanced Video Codec
Format profile : [email protected]
Format settings : CABAC / 1 Ref Frames
Format settings, CABAC : Yes
Format settings, Reference : 1 frame
Format settings, GOP : M=1, N=25
Codec ID : V_MPEG4/ISO/AVC
Duration : 1 h 47 min
Bit rate : 1 501 kb/s
Width : 720 pixels
Height : 404 pixels
Display aspect ratio : 16:9
Frame rate mode : Constant
Frame rate : 25.000 FPS
Color space : YUV
Chroma subsampling : 4:2:0
Bit depth : 8 bits
Scan type : Progressive
Bits/(Pixel*Frame) : 0.206
Stream size : 1.13 GiB (84%)
Default : Yes
Forced : No
Audio #1
ID : 2
Format : AC-3
Format/Info : Audio Coding 3
Commercial name : Dolby Digital
Codec ID : A_AC3
Duration : 1 h 47 min
Bit rate mode : Constant
Bit rate : 192 kb/s
Channel(s) : 2 channels
Channel layout : L R
Sampling rate : 48.0 kHz
Frame rate : 31.250 FPS (1536 SPF)
Compression mode : Lossy
Stream size : 148 MiB (11%)
Language : Ukrainian
Service kind : Complete Main
Default : Yes
Forced : Yes
Audio #2
ID : 3
Format : AAC LC
Format/Info : Advanced Audio Codec Low Complexity
Codec ID : A_AAC-2
Duration : 1 h 47 min
Bit rate : 96.0 kb/s
Channel(s) : 2 channels
Channel layout : L R
Sampling rate : 44.1 kHz
Frame rate : 43.066 FPS (1024 SPF)
Compression mode : Lossy
Stream size : 74.1 MiB (5%)
Language : Italian
Default : No
Forced : No
Джерело:
За запис з ТБ дякую пану Богдан
За відео дякую п. ssTAss, Neytreenor
Особиста оцінка: не дивився
Показати повідомлення:    

Поточний час: 23-Кві 01:51

Часовий пояс: UTC + 3


Ви не можете створювати нові теми на форумі
Ви не можете відповідати в темах на форумі
Ви не можете редагувати свої повідомлення на форумі
Ви не можете видаляти свої повідомлення на форумі
Ви не можете голосувати в опитуваннях на форумі
Ви не можете прикріплювати файли
Ви не можете завантажувати файли