Українська кава свіжообсмажена
 

Anonymous

Гнів людський / Wrath of Man (2021) BDRip 2xUkr/Eng Жанр: бойовик, трилер
Країна: США, Велика Британія

Кінокомпанія: Miramax Films
Режисер: Ґай Річі
Актори: Джейсон Стейтем, Голт МакКеллані, Джош Гартнетт, Скотт Іствуд, Джеффрі Донован, Лаз Алонсо, Ніам Алґар, Едді Марсан, Енді Ґарсія, Алекс Фернс
Сюжет:Гілл - загадковий і холодний на вигляд британський джентльмен, але всередині нього палає жага правосуддя. Переслідуючи свої мотиви, він має намір знайти замовника серії багатомільйонних пограбувань, що приголомшили Лос-Анджелес. У цій заплутаній грі у кожного своя роль, але винні обов'язково пізнають гнів людський...Тривалість: 01:58:56
Якість: WEBDLRip
Відео:
кодек: XviD
розмір кадру: 720x304
бітрейт: 1 786 кб/с
Аудіо#1:
мова: українська
переклад: професійний дубльований
кодек: AC3 5.1
бітрейт: 384 кб/с
Аудіо#2:
мова: українська
переклад: багатоголосий закадровий
кодек: AC3 5.1
бітрейт: 384 кб/с
Аудіо#3:
мова: англійська
переклад: оригінал
кодек: AC3 5.1
бітрейт: 448 кб/с

MediaInfo

General
Complete name : G:\Фільми\Wrath of Man (2021) BDRip [2xUKR_ENG] [Hurtom].avi
Format : AVI
Format/Info : Audio Video Interleave
Format profile : OpenDML
File size : 2.51 GiB
Duration : 1 h 58 min
Overall bit rate : 3 023 kb/s
Writing application : Lavf58.20.100
Video
ID : 0
Format : MPEG-4 Visual
Format profile : Advanced
Format settings : BVOP1
Format settings, BVOP : 1
Format settings, QPel : No
Format settings, GMC : No warppoints
Format settings, Matrix : Default (H.263)
Codec ID : XVID
Codec ID/Hint : XviD
Duration : 1 h 58 min
Bit rate : 1 786 kb/s
Width : 720 pixels
Height : 304 pixels
Display aspect ratio : 2.40:1
Frame rate : 23.976 (24000/1001) FPS
Color space : YUV
Chroma subsampling : 4:2:0
Bit depth : 8 bits
Scan type : Progressive
Compression mode : Lossy
Bits/(Pixel*Frame) : 0.340
Stream size : 1.48 GiB (59%)
Writing library : XviD 67
Audio #1
ID : 1
Format : AC-3
Format/Info : Audio Coding 3
Commercial name : Dolby Digital
Codec ID : 2000
Duration : 1 h 58 min
Bit rate mode : Constant
Bit rate : 384 kb/s
Channel(s) : 6 channels
Channel layout : L R C LFE Ls Rs
Sampling rate : 48.0 kHz
Frame rate : 31.250 FPS (1536 SPF)
Bit depth : 16 bits
Compression mode : Lossy
Stream size : 326 MiB (13%)
Alignment : Aligned on interleaves
Interleave, duration : 32 ms (0.77 video frame)
Title : DUB-iTunes (Postmodern)
Service kind : Complete Main
Audio #2
ID : 2
Format : AC-3
Format/Info : Audio Coding 3
Commercial name : Dolby Digital
Codec ID : 2000
Duration : 1 h 58 min
Bit rate mode : Constant
Bit rate : 384 kb/s
Channel(s) : 6 channels
Channel layout : L R C LFE Ls Rs
Sampling rate : 48.0 kHz
Frame rate : 31.250 FPS (1536 SPF)
Bit depth : 16 bits
Compression mode : Lossy
Stream size : 327 MiB (13%)
Alignment : Aligned on interleaves
Interleave, duration : 32 ms (0.77 video frame)
Title : MVO-DniproFilm
Service kind : Complete Main
Audio #3
ID : 3
Format : AC-3
Format/Info : Audio Coding 3
Commercial name : Dolby Digital
Codec ID : 2000
Duration : 1 h 58 min
Bit rate mode : Constant
Bit rate : 448 kb/s
Channel(s) : 6 channels
Channel layout : L R C LFE Ls Rs
Sampling rate : 48.0 kHz
Frame rate : 31.250 FPS (1536 SPF)
Bit depth : 16 bits
Compression mode : Lossy
Stream size : 381 MiB (15%)
Alignment : Aligned on interleaves
Interleave, duration : 32 ms (0.77 video frame)
Title : Original
Service kind : Complete Main

Скріншоти




Джерело:
Особиста оцінка: 8 - мені сподобалося
Показати повідомлення:    

Поточний час: 10-Гру 22:22

Часовий пояс: UTC + 3


Ви не можете створювати нові теми на форумі
Ви не можете відповідати в темах на форумі
Ви не можете редагувати свої повідомлення на форумі
Ви не можете видаляти свої повідомлення на форумі
Ви не можете голосувати в опитуваннях на форумі
Ви не можете прикріплювати файли
Ви не можете завантажувати файли