Інтернет крамниця Взувайся 

Серпіко / Serpico (1973) BDRip Ukr/Eng

 
Автор Повідомлення

Anonymous ®

Стаж: 1 рік 3 місяців

Повідомлень: 71446

Опублікувати 17-Чер-2022 00:14

[Цитувати]

Серпіко / Serpico (1973) BDRip Ukr/Eng Жанр: біографічний, драма, детектив
Країна: США, Італія

Кінокомпанія: Artists Entertainment Complex, Produzioni De Laurentiis International Manufacturing Company
Режисер: Сідні Люмет
Актори: Аль Пачіно, Джон Рендолф, Джек Кіхое, Біфф МакҐуаєр, Барбара Еда-Янґ, Корнелія Шарп, Тоні Робертс, М. Еммет Волш, Ф. Мюррей Абрахам, Кеннет МакМіллан, Аллан Річ, Джон Медічі, Норман Орнеллас та інші.
Сюжет:
Сюжет заснований на реальній історії нью-йоркського поліцейського, який виявляє, що в його роботі поняття честь і чесність не є обов'язковими. Він стійко терпить презирство та погане ставлення до себе з боку інших поліцейських і намагається чесно виконувати свою роботу.
Тривалість: 02:10:07
Якість: BDRip [ріп від HQClub]
Відео:
контейнер: avi
кодек: XviD
розмір кадру: 704х384
бітрейт: 1939 кбіт/сек.
Аудіо # 1:
мова: українська
озвучення: трьохголосе закадрове
кодек: AC3 2.0
бітрейт: 192 кбіт/сек.
Аудіо # 2:
мова: англійська
озвучення: оригінал
кодек: AC3 5.1
бітрейт: 448 кбіт/сек.

MI

General
Complete name : D:\Films\Serpico_1973_BDRip.avi
Format : AVI
Format/Info : Audio Video Interleave
Format profile : OpenDML
File size : 2.36 GiB
Duration : 2 h 10 min
Overall bit rate : 2 596 kb/s
Writing application : VirtualDubMod 1.5.10.2 (build 2540/release)
Writing library : VirtualDubMod build 2540/release
Video
ID : 0
Format : MPEG-4 Visual
Format profile : Advanced
Format settings : BVOP1 / Custom Matrix
Format settings, BVOP : 1
Format settings, QPel : No
Format settings, GMC : No warppoints
Format settings, Matrix : Custom
Codec ID : XVID
Codec ID/Hint : XviD
Duration : 2 h 10 min
Bit rate : 1 939 kb/s
Width : 704 pixels
Height : 384 pixels
Display aspect ratio : 1.85:1
Frame rate : 23.976 (24000/1001) FPS
Color space : YUV
Chroma subsampling : 4:2:0
Bit depth : 8 bits
Scan type : Progressive
Compression mode : Lossy
Bits/(Pixel*Frame) : 0.299
Stream size : 1.76 GiB (75%)
Writing library : XviD 1.2.1 (UTC 2008-12-04)
Audio #1
ID : 1
Format : AC-3
Format/Info : Audio Coding 3
Codec ID : 2000
Duration : 2 h 10 min
Bit rate mode : Constant
Bit rate : 192 kb/s
Channel(s) : 2 channels
Channel positions : Front: L R
Sampling rate : 48.0 kHz
Frame rate : 31.250 FPS (1536 SPF)
Bit depth : 16 bits
Compression mode : Lossy
Stream size : 179 MiB (7%)
Alignment : Split accross interleaves
Interleave, duration : 42 ms (1.00 video frame)
Interleave, preload duratio : 500 ms
Service kind : Complete Main
Audio #2
ID : 2
Format : AC-3
Format/Info : Audio Coding 3
Codec ID : 2000
Duration : 2 h 10 min
Bit rate mode : Constant
Bit rate : 448 kb/s
Channel(s) : 6 channels
Channel positions : Front: L C R, Side: L R, LFE
Sampling rate : 48.0 kHz
Frame rate : 31.250 FPS (1536 SPF)
Bit depth : 16 bits
Compression mode : Lossy
Stream size : 417 MiB (17%)
Alignment : Split accross interleaves
Interleave, duration : 42 ms (1.00 video frame)
Interleave, preload duratio : 500 ms
Service kind : Complete Main

| 720p |Озвучено за фінансової підтримки NemoInFireДжерело озвучення та релізу: AniUA
[Профіль] [ПП]
Показати повідомлення:    
Відповісти в темі

Поточний час: 03-Жов 23:05

Часовий пояс: UTC + 3



Ви не можете створювати нові теми на форумі
Ви не можете відповідати в темах на форумі
Ви не можете редагувати свої повідомлення на форумі
Ви не можете видаляти свої повідомлення на форумі
Ви не можете голосувати в опитуваннях на форумі
Ви не можете прикріплювати файли
Ви не можете завантажувати файли