Родина Адамсів 2 / The Addams Family 2 (2021) WEB-DL 4K 2160p H.265 HDR Ukr/Eng | Sub Eng

Відповісти в темі
 
Автор Повідомлення

staf777 ®

Стаж: 1 рік 1 місяць

Повідомлень: 1295

Опублікувати 05-Січ-2022 23:14

[Цитувати]

Родина Адамсів 2 / The Addams Family 2 (2021) WEB-DL 4K 2160p H.265 HDR Ukr/Eng | Sub Eng
Жанр: пригодницький, комедія, сімейний, фентезі, жахи
Країна: США, Канада

Кінокомпанія: Metro-Goldwyn-Mayer (MGM), BRON Studios, Creative Wealth Media Finance
Режисер: Конрад Вернон, Ґреґ Тірнан
Актори: Оскар Айзек, Шарліз Терон, Хлоя Ґрейс Морец, Джейвон Волтон, Нік Кролл, Снуп Доґґ, Бетт Мідлер, Білл Гейдер та ін.
Сюжет: Гадаєте, кріповіше вже нікуди? Легендарна сімейка Адамсів повертається у продовженні пекельно-драйвової анімаційної пригоди! Ще більше інтриг, переляків та дивакуватих жартів на будь-який смак!
Тривалість: 01:32:43
Якість: WEB-DL 2160p 4K H.265 HDR
Відео:
кодек: H.265
розмір кадру: 3832x2068
бітрейт: 14.0 Mб/с
Увага! Перед завантаженням переконайтесь, що ваш пристрій відтворення (та/або ПЗ) підтримує H.265 (HEVC)
Аудіо # 1:
мова: українська
переклад: професійний дубльований
кодек: AC3 5.1
бітрейт: 448 кб/с
Аудіо # 2:
мова: англійська
переклад: оригінал
кодек: E-AC3 5.1
бітрейт: 640 кб/с
Субтитри:
мова: англійська
тип: програмні (м'які)
формат: *.srt

MediaInfo:

General
Unique ID : 251175868283972809274572141197594100377 (0xBCF6B66D2FCB397E99431253C09E8299)
Complete name : F:\Мультфільми в HD\The Addams Family 2 (2021) WEB-DL 4K 2160p H.265 HDR [UKR_ENG] [Hurtom].mkv
Format : Matroska
Format version : Version 4
File size : 9.75 GiB
Duration : 1 h 32 min
Overall bit rate : 15.1 Mb/s
Movie name : Родина Адамсів 2 / The Addams Family 2 (2021) WEB-DL 4K 2160p H.265 HDR [UKR_ENG] [Hurtom]
Encoded date : UTC 2021-12-29 18:26:15
Writing application : mkvmerge v45.0.0 ('Heaven in Pennies') 64-bit
Writing library : libebml v1.3.10 + libmatroska v1.5.2
Cover : Yes
Attachments : cover.jpg
Video
ID : 1
Format : HEVC
Format/Info : High Efficiency Video Coding
Format profile : Main [email protected]@High
HDR format : SMPTE ST 2086, HDR10 compatible
Codec ID : V_MPEGH/ISO/HEVC
Duration : 1 h 32 min
Bit rate : 14.0 Mb/s
Width : 3 832 pixels
Height : 2 068 pixels
Display aspect ratio : 1.85:1
Frame rate mode : Constant
Frame rate : 23.976 FPS
Color space : YUV
Chroma subsampling : 4:2:0 (Type 2)
Bit depth : 10 bits
Bits/(Pixel*Frame) : 0.073
Stream size : 9.04 GiB (93%)
Language : English
Default : Yes
Forced : No
Color range : Limited
Color primaries : BT.2020
Transfer characteristics : PQ
Matrix coefficients : BT.2020 non-constant
Mastering display color pri : BT.2020
Mastering display luminance : min: 0.0050 cd/m2, max: 1000 cd/m2
Maximum Content Light Level : 3910 cd/m2
Maximum Frame-Average Light : 836 cd/m2
Audio #1
ID : 2
Format : AC-3
Format/Info : Audio Coding 3
Commercial name : Dolby Digital
Codec ID : A_AC3
Duration : 1 h 32 min
Bit rate mode : Constant
Bit rate : 448 kb/s
Channel(s) : 6 channels
Channel layout : L R C LFE Ls Rs
Sampling rate : 48.0 kHz
Frame rate : 31.250 FPS (1536 SPF)
Compression mode : Lossy
Stream size : 297 MiB (3%)
Language : Ukrainian
Service kind : Complete Main
Default : Yes
Forced : Yes
Audio #2
ID : 3
Format : E-AC-3
Format/Info : Enhanced AC-3
Commercial name : Dolby Digital Plus
Codec ID : A_EAC3
Duration : 1 h 32 min
Bit rate mode : Constant
Bit rate : 640 kb/s
Channel(s) : 6 channels
Channel layout : L R C LFE Ls Rs
Sampling rate : 48.0 kHz
Frame rate : 31.250 FPS (1536 SPF)
Compression mode : Lossy
Stream size : 424 MiB (4%)
Title : Original
Language : English
Service kind : Complete Main
Default : No
Forced : No
Text #1
ID : 4
Format : UTF-8
Codec ID : S_TEXT/UTF8
Codec ID/Info : UTF-8 Plain Text
Duration : 1 h 27 min
Bit rate : 56 b/s
Count of elements : 1437
Stream size : 36.1 KiB (0%)
Title : Full
Language : English
Default : No
Forced : No
Text #2
ID : 5
Format : UTF-8
Codec ID : S_TEXT/UTF8
Codec ID/Info : UTF-8 Plain Text
Duration : 1 h 27 min
Bit rate : 80 b/s
Count of elements : 1870
Stream size : 51.8 KiB (0%)
Title : SDH
Language : English
Default : No
Forced : No

Скріншоти:



Джерело: &
Схожі релізи
Додано Роздачі Розмір Сід | Ліч
05-Січ-22 23:18 Родина Адамсів 2 / The Addams Family 2 (2021) WEB-DL 720p Ukr/Eng | Sub Eng 2.72 GB 2 | 0
05-Січ-22 15:51 Родина Адамсів 2 / The Addams Family 2 (2021) WEB-DL 1080p Ukr/Eng | Sub Eng 5.23 GB 1 | 0
31-Жов-21 15:02 Родина Адамсів 2 / The Addams Family 2 (2021) WEB-DL 1080p 4.65 GB 1 | 1
31-Жов-21 14:46 Родина Адамсів 2 / The Addams Family 2 (2021) WEB-DLRip 1.69 GB 1 | 0


Востаннє змінено staf777 (2022-01-05 23:16); всього редагувань: 1
[Профіль] [ПП]

Опублікувати 05-Січ-2022 23:15 (після 58 секунд)

Тему було перенесено з форуму Незабаром на трекері на форум Мультфільми HD, UHD
staf777
 
Показати повідомлення:    
Відповісти в темі

Поточний час: 21-Січ 18:31

Часовий пояс: UTC + 2



Ви не можете створювати нові теми на форумі
Ви не можете відповідати в темах на форумі
Ви не можете редагувати свої повідомлення на форумі
Ви не можете голосувати в опитуваннях на форумі
Ви не можете прикріплювати файли
Ви не можете завантажувати файли