Таємний клуб Гернсі любителів книг і пирогів з картопляного лушпиння / The Guernsey Literary and Potato Peel Pie Society (2018) BDRemux 1080p Ukr/Eng | Sub Eng

Відповісти в темі
 
Автор Повідомлення

staf777 ®

Стаж: 1 рік 1 місяць

Повідомлень: 1296

Опублікувати 03-Січ-2022 15:59

[Цитувати]

Таємний клуб Гернсі любителів книг і пирогів з картопляного лушпиння / The Guernsey Literary and Potato Peel Pie Society (2018) BDRemux 1080p Ukr/Eng | Sub Eng
Жанр: драма, історичний, романтичний
Країна: США, Велика Британія, Франція

Кінокомпанія: Studio Canal, Canal+, Blueprint Pictures, Amazon
Режисер: Майк Ньюелл
Актори: Лілі Джеймс, Міхіл Гаушман, Ґлен Пауелл, Джессіка Браун Фіндлі, Кетрін Паркінсон, Меттью Ґуд, Том Кортні, Пенелопа Вілтон, Брона Ґаллагер, Кіт Коннор
Сюжет: Лондон у 1946 році тільки відновлювався після жахливих наслідків Другої світової війни. Джулієт ось уже який час робить усе можливе, щоб знайти натхнення для своєї нової книги. Багато тем їй здаються абсолютно невідповідними або просто нудними, а про саму війну писати зовсім немає бажання. Але допомога прийшла звідки не чекали — один свинар із острова Ґернсі надіслав дівчині лист. Його звуть Доусен, і він коротко розповів історію літературного клубу в ті часи, коли острів був під окупацією. Джулієт вирішує відвідати те місце, щоб більше дізнатися про Клуб любителів книг і пирогів із картопляного лушпиння. Саме ці люди та їх історії надихнуть письменницю на нову книгу.
Тривалість: 02:03:28
Якість: BDRemux 1080p
Відео:
кодек: H.264
розмір кадру: 1920х1080
бітрейт: 29,9 Mб/с
Аудіо # 1:
мова: українська
переклад: багатоголосий закадровий
кодек: AC3 5.1
бітрейт: 448 кб/с
Аудіо # 2:
мова: англійська
переклад: оригінал
кодек: AC3 5.1
бітрейт: 448 кб/с
Аудіо # 3:
мова: англійська
переклад: оригінал
кодек: DTS-HD MA 5.1
бітрейт: 3 375 кб/с
Субтитри:
мова: англійська
тип: програмні (м'які)
формат: *.srt

MediaInfo:

General
Unique ID : 275012882871055450235459536299928472087 (0xCEE58DFBAA65B3180A25F08FEBAE4A17)
Complete name : Z:\Toloka\Фільми в HD\Драма\The Guernsey Literary and Potato Peel Pie Society (2018) BDRemux 1080p [UKR_ENG] [Hurtom].mkv
Format : Matroska
Format version : Version 4
File size : 29.4 GiB
Duration : 2 h 3 min
Overall bit rate mode : Variable
Overall bit rate : 34.1 Mb/s
Movie name : Таємний клуб Гернсі любителів книг і пирогів з картопляного лушпиння / The Guernsey Literary and Potato Peel Pie Society (2018) BDRemux 1080p [UKR_ENG] [Hurtom]
Encoded date : UTC 2021-12-29 09:29:33
Writing application : mkvmerge v45.0.0 ('Heaven in Pennies') 64-bit
Writing library : libebml v1.3.10 + libmatroska v1.5.2
Cover : Yes
Attachments : cover.jpg
Video
ID : 1
Format : AVC
Format/Info : Advanced Video Codec
Format profile : [email protected]
Format settings : CABAC / 3 Ref Frames
Format settings, CABAC : Yes
Format settings, Reference : 3 frames
Codec ID : V_MPEG4/ISO/AVC
Duration : 2 h 3 min
Bit rate mode : Variable
Bit rate : 29.9 Mb/s
Maximum bit rate : 35.0 Mb/s
Width : 1 920 pixels
Height : 1 080 pixels
Display aspect ratio : 16:9
Frame rate mode : Constant
Frame rate : 24.000 FPS
Standard : NTSC
Color space : YUV
Chroma subsampling : 4:2:0
Bit depth : 8 bits
Scan type : Progressive
Bits/(Pixel*Frame) : 0.600
Stream size : 25.7 GiB (87%)
Default : Yes
Forced : No
Color range : Limited
Color primaries : BT.709
Transfer characteristics : BT.709
Matrix coefficients : BT.709
Audio #1
ID : 2
Format : AC-3
Format/Info : Audio Coding 3
Commercial name : Dolby Digital
Codec ID : A_AC3
Duration : 2 h 3 min
Bit rate mode : Constant
Bit rate : 448 kb/s
Channel(s) : 6 channels
Channel layout : L R C LFE Ls Rs
Sampling rate : 48.0 kHz
Frame rate : 31.250 FPS (1536 SPF)
Compression mode : Lossy
Stream size : 396 MiB (1%)
Title : MVO [MEGOGO]
Language : Ukrainian
Service kind : Complete Main
Default : Yes
Forced : Yes
Audio #2
ID : 3
Format : AC-3
Format/Info : Audio Coding 3
Commercial name : Dolby Digital
Codec ID : A_AC3
Duration : 2 h 3 min
Bit rate mode : Constant
Bit rate : 448 kb/s
Channel(s) : 6 channels
Channel layout : L R C LFE Ls Rs
Sampling rate : 48.0 kHz
Frame rate : 31.250 FPS (1536 SPF)
Compression mode : Lossy
Stream size : 396 MiB (1%)
Title : Original
Language : English
Service kind : Complete Main
Default : No
Forced : No
Audio #3
ID : 4
Format : DTS XLL
Format/Info : Digital Theater Systems
Commercial name : DTS-HD Master Audio
Codec ID : A_DTS
Duration : 2 h 3 min
Bit rate mode : Variable
Bit rate : 3 375 kb/s
Channel(s) : 6 channels
Channel layout : C L R Ls Rs LFE
Sampling rate : 48.0 kHz
Frame rate : 93.750 FPS (512 SPF)
Bit depth : 24 bits
Compression mode : Lossless
Stream size : 2.91 GiB (10%)
Language : English
Default : No
Forced : No
Text
ID : 5
Format : UTF-8
Codec ID : S_TEXT/UTF8
Codec ID/Info : UTF-8 Plain Text
Duration : 1 h 59 min
Bit rate : 57 b/s
Count of elements : 1477
Stream size : 50.4 KiB (0%)
Title : Full
Language : English
Default : No
Forced : No
Menu
00:00:00.000 : :Chapter 01
00:10:31.333 : :Chapter 02
00:18:53.833 : :Chapter 03
00:29:07.750 : :Chapter 04
00:40:53.750 : :Chapter 05
00:49:02.166 : :Chapter 06
00:58:55.375 : :Chapter 07
01:07:56.125 : :Chapter 08
01:17:33.208 : :Chapter 09
01:27:39.208 : :Chapter 10
01:37:37.625 : :Chapter 11
01:46:54.250 : :Chapter 12

Скріншоти:


Джерело: &
Схожі релізи
Додано Роздачі Розмір Сід | Ліч
03-Січ-22 15:58 Таємний клуб Гернсі любителів книг і пирогів з картопляного лушпиння / The Guernsey Literary and Potato Peel Pie Society (2018) BDRip 1080p Ukr/Eng | Sub Eng 8.76 GB 1 | 0


Востаннє змінено staf777 (2022-01-03 16:58); всього редагувань: 1
[Профіль] [ПП]

Опублікувати 03-Січ-2022 16:58 (після 58 хвилин)

Тему було перенесено з форуму Незабаром на трекері на форум Фільми HD, UHD
staf777
 
Показати повідомлення:    
Відповісти в темі

Поточний час: 21-Січ 19:57

Часовий пояс: UTC + 2



Ви не можете створювати нові теми на форумі
Ви не можете відповідати в темах на форумі
Ви не можете редагувати свої повідомлення на форумі
Ви не можете голосувати в опитуваннях на форумі
Ви не можете прикріплювати файли
Ви не можете завантажувати файли