Таємний клуб Гернсі любителів книг і пирогів з картопляного лушпиння / The Guernsey Literary and Potato Peel Pie Society (2018) BDRip 1080p Ukr/Eng | Sub Eng

Відповісти в темі
 
Автор Повідомлення

staf777 ®

Стаж: 1 рік 1 місяць

Повідомлень: 1342

Опублікувати 03-Січ-2022 15:58

[Цитувати]

Таємний клуб Гернсі любителів книг і пирогів з картопляного лушпиння / The Guernsey Literary and Potato Peel Pie Society (2018) BDRip 1080p Ukr/Eng | Sub Eng
Жанр: драма, історичний, романтичний
Країна: США, Велика Британія, Франція

Кінокомпанія: Studio Canal, Canal+, Blueprint Pictures, Amazon
Режисер: Майк Ньюелл
Актори: Лілі Джеймс, Міхіл Гаушман, Ґлен Пауелл, Джессіка Браун Фіндлі, Кетрін Паркінсон, Меттью Ґуд, Том Кортні, Пенелопа Вілтон, Брона Ґаллагер, Кіт Коннор
Сюжет: Лондон у 1946 році тільки відновлювався після жахливих наслідків Другої світової війни. Джулієт ось уже який час робить усе можливе, щоб знайти натхнення для своєї нової книги. Багато тем їй здаються абсолютно невідповідними або просто нудними, а про саму війну писати зовсім немає бажання. Але допомога прийшла звідки не чекали — один свинар із острова Ґернсі надіслав дівчині лист. Його звуть Доусен, і він коротко розповів історію літературного клубу в ті часи, коли острів був під окупацією. Джулієт вирішує відвідати те місце, щоб більше дізнатися про Клуб любителів книг і пирогів із картопляного лушпиння. Саме ці люди та їх історії надихнуть письменницю на нову книгу.
Тривалість: 02:03:28
Якість: BDRip
Відео:
кодек: H.264
розмір кадру: 1920х1036
бітрейт: 9272 кб/с
Аудіо # 1:
мова: українська
переклад: багатоголосий закадровий
кодек: AC3 5.1
бітрейт: 448 кб/с
Аудіо # 2:
мова: англійська
переклад: оригінал
кодек: AC3 5.1
бітрейт: 448 кб/с
Субтитри:
мова: англійська
тип: програмні (м'які)
формат: *.srt

MediaInfo:

General
Unique ID : 289026406272742179600380898396168121687 (0xD9707607C2EF1DD1785B4A8A615DED57)
Complete name : Z:\Toloka\Фільми в HD\Драма\The Guernsey Literary and Potato Peel Pie Society (2018) [Ukr_Eng] BDRip 1080p [Hurtom].mkv
Format : Matroska
Format version : Version 4
File size : 8.76 GiB
Duration : 2 h 3 min
Overall bit rate : 10.2 Mb/s
Movie name : Таємний клуб Гернсі любителів книг і пирогів з картопляного лушпиння / The Guernsey Literary and Potato Peel Pie Society (2018) [Ukr_Eng] BDRip 1080p [Hurtom]
Encoded date : UTC 2021-12-28 22:23:49
Writing application : mkvmerge v45.0.0 ('Heaven in Pennies') 64-bit
Writing library : libebml v1.3.10 + libmatroska v1.5.2
Cover : Yes
Attachments : cover.jpg
Video
ID : 1
Format : AVC
Format/Info : Advanced Video Codec
Format profile : [email protected]
Format settings : CABAC / 4 Ref Frames
Format settings, CABAC : Yes
Format settings, Reference : 4 frames
Codec ID : V_MPEG4/ISO/AVC
Duration : 2 h 3 min
Bit rate : 9 272 kb/s
Width : 1 920 pixels
Height : 1 036 pixels
Display aspect ratio : 1.85:1
Frame rate mode : Constant
Frame rate : 24.000 FPS
Color space : YUV
Chroma subsampling : 4:2:0
Bit depth : 8 bits
Scan type : Progressive
Bits/(Pixel*Frame) : 0.194
Stream size : 7.99 GiB (91%)
Title : Sisendrovich(R)
Writing library : x264 core 157 r2958 57baac4
Encoding settings : cabac=1 / ref=4 / deblock=1:-1:-1 / analyse=0x3:0x133 / me=tesa / subme=11 / psy=1 / psy_rd=1.00:0.00 / mixed_ref=1 / me_range=32 / chroma_me=1 / trellis=2 / 8x8dct=1 / cqm=0 / deadzone=21,11 / fast_pskip=0 / chroma_qp_offset=-2 / threads=17 / lookahead_threads=4 / sliced_threads=0 / nr=0 / decimate=0 / interlaced=0 / bluray_compat=0 / constrained_intra=0 / bframes=12 / b_pyramid=2 / b_adapt=2 / b_bias=0 / direct=3 / weightb=1 / open_gop=0 / weightp=2 / keyint=240 / keyint_min=23 / scenecut=40 / intra_refresh=0 / rc_lookahead=120 / rc=2pass / mbtree=0 / bitrate=9272 / ratetol=1.0 / qcomp=0.70 / qpmin=0 / qpmax=69 / qpstep=4 / cplxblur=20.0 / qblur=0.5 / vbv_maxrate=50000 / vbv_bufsize=62500 / nal_hrd=none / filler=0 / ip_ratio=1.40 / pb_ratio=1.30 / aq=3:0.80
Language : English
Default : Yes
Forced : No
Color range : Limited
Color primaries : BT.709
Transfer characteristics : BT.709
Matrix coefficients : BT.709
Audio #1
ID : 2
Format : AC-3
Format/Info : Audio Coding 3
Commercial name : Dolby Digital
Codec ID : A_AC3
Duration : 2 h 3 min
Bit rate mode : Constant
Bit rate : 448 kb/s
Channel(s) : 6 channels
Channel layout : L R C LFE Ls Rs
Sampling rate : 48.0 kHz
Frame rate : 31.250 FPS (1536 SPF)
Compression mode : Lossy
Stream size : 396 MiB (4%)
Title : MVO [MEGOGO]
Language : Ukrainian
Service kind : Complete Main
Default : Yes
Forced : Yes
Audio #2
ID : 3
Format : AC-3
Format/Info : Audio Coding 3
Commercial name : Dolby Digital
Codec ID : A_AC3
Duration : 2 h 3 min
Bit rate mode : Constant
Bit rate : 448 kb/s
Channel(s) : 6 channels
Channel layout : L R C LFE Ls Rs
Sampling rate : 48.0 kHz
Frame rate : 31.250 FPS (1536 SPF)
Compression mode : Lossy
Stream size : 396 MiB (4%)
Title : Original
Language : English
Service kind : Complete Main
Default : No
Forced : No
Text
ID : 4
Format : UTF-8
Codec ID : S_TEXT/UTF8
Codec ID/Info : UTF-8 Plain Text
Duration : 1 h 59 min
Bit rate : 57 b/s
Count of elements : 1477
Stream size : 50.4 KiB (0%)
Title : Full
Language : English
Default : No
Forced : No
Menu
00:00:00.000 : :Chapter 01
00:10:31.333 : :Chapter 02
00:18:53.833 : :Chapter 03
00:29:07.750 : :Chapter 04
00:40:53.750 : :Chapter 05
00:49:02.166 : :Chapter 06
00:58:55.375 : :Chapter 07
01:07:56.125 : :Chapter 08
01:17:33.208 : :Chapter 09
01:27:39.208 : :Chapter 10
01:37:37.625 : :Chapter 11
01:46:54.250 : :Chapter 12

Скріншоти:





Джерело: &
Схожі релізи
Додано Роздачі Розмір Сід | Ліч
03-Січ-22 15:59 Таємний клуб Гернсі любителів книг і пирогів з картопляного лушпиння / The Guernsey Literary and Potato Peel Pie Society (2018) BDRemux 1080p Ukr/Eng | Sub Eng 29.44 GB |


Востаннє змінено staf777 (2022-01-03 16:56); всього редагувань: 1
[Профіль] [ПП]

Опублікувати 03-Січ-2022 16:55 (після 56 хвилин)

Тему було перенесено з форуму Незабаром на трекері на форум Фільми HD, UHD
staf777
 
Показати повідомлення:    
Відповісти в темі

Поточний час: 22-Січ 19:28

Часовий пояс: UTC + 2



Ви не можете створювати нові теми на форумі
Ви не можете відповідати в темах на форумі
Ви не можете редагувати свої повідомлення на форумі
Ви не можете голосувати в опитуваннях на форумі
Ви не можете прикріплювати файли
Ви не можете завантажувати файли