Підірвати Гітлера / Elser (2015) BDRip 1080p Ukr/Ger | Sub Eng/Ger

Відповісти в темі
 
Автор Повідомлення

staf777 ®

Стаж: 1 рік 1 місяць

Повідомлень: 1342

Опублікувати 31-Гру-2021 20:06

[Цитувати]

Підірвати Гітлера / Elser (2015) BDRip 1080p Ukr/Ger | Sub Eng/Ger
Жанр: драма, історичний, військовий
Країна: Німеччина

Кінокомпанія: Albolina Film, Lucky Bird Pictures, Philipp Filmproduction, Westdeutscher Rundfunk (WDR)
Режисер: Олівер Хіршбігель / Oliver Hirschbiegel
Актори: Крістіан Фрідель (Georg Elser), Катаріна Шюттлера (Elsa), Бургхарт Клаусснер (Nebe), Йохан фон Бюлов (Heinrich Müller), Фелікс Ейтнер (Eberle), Давид Зіммершмід (Josef Schurr), Рюдігер Клінк (Erich), Симон Ліхт (SS Obergruppenführer), Корнелія Конгден (Maria Elser), Мартін Марія Абрам (Ludwig Elser), Міхаель Кранц (Franz Xaver Lechner), Герті Драссль (Lore)
Сюжет: Всього 13 хвилин не вистачило теслі Георгу Ельзер, щоб змінити хід світової історії. 8 листопада 1939 року в мюнхенській пивній «Бюргербройкеллер», де Гітлер щороку в річницю «Пивного путчу» виступав перед ветеранами Націонал-соціалістичної робітничої партії Німеччини, Ельзер вмонтував саморобний вибуховий пристрій з годинниковим механізмом в колону, перед якою зазвичай встановлювали трибуну для Гітлера.
Тривалість: 01:53:48
Якість: BDRip 1080p
Відео:
кодек: H.264
розмір кадру: 1920x808
бітрейт: 10.3 Мб/с
Аудіо # 1:
мова: українська
переклад: багатоголосий закадровий | OBOZ-TV
кодек: AC3 2.0
бітрейт: 192 кб/с
Аудіо # 2:
мова: німецька
переклад: оригінал
кодек: DTS 5.1
бітрейт: 768 кб/с
Субтитри:
мова: англійська
тип: програмні (м'які)
формат: *.srt
Субтитри:
мова: німецька
тип: програмні (м'які)
формат: *.srt

MediaInfo:

General
Unique ID : 305587167600758286167044813515537879917 (0xE5E5F29A84F3F8B9C3415410C9C1936D)
Complete name : N:\Фільми HD\Історичний\Elser (2015) BDRip 1080p [UA][GER][Hurtom].mkv
Format : Matroska
Format version : Version 4 / Version 2
File size : 8.96 GiB
Duration : 1 h 53 min
Overall bit rate : 11.3 Mb/s
Movie name : Elser (2015) BDRip 1080p [UA][GER][Hurtom]
Encoded date : UTC 2018-11-14 12:52:56
Writing application : mkvmerge v24.0.0 ('Beyond The Pale') 64-bit
Writing library : libebml v1.3.6 + libmatroska v1.4.9
Cover : Yes
Attachments : cover.png
Video
ID : 1
Format : AVC
Format/Info : Advanced Video Codec
Format profile : [email protected]
Format settings : CABAC / 5 Ref Frames
Format settings, CABAC : Yes
Format settings, ReFrames : 5 frames
Codec ID : V_MPEG4/ISO/AVC
Duration : 1 h 53 min
Bit rate : 10.3 Mb/s
Width : 1 920 pixels
Height : 808 pixels
Display aspect ratio : 2.40:1
Frame rate mode : Constant
Frame rate : 24.000 FPS
Color space : YUV
Chroma subsampling : 4:2:0
Bit depth : 8 bits
Scan type : Progressive
Bits/(Pixel*Frame) : 0.277
Stream size : 8.20 GiB (91%)
Title : encounters-elerhadiweve_1080p
Writing library : x264 core 148 r2597 e86f3a1
Encoding settings : cabac=1 / ref=5 / deblock=1:-1:-1 / analyse=0x3:0x133 / me=umh / subme=7 / psy=1 / psy_rd=1.00:0.15 / mixed_ref=1 / me_range=16 / chroma_me=1 / trellis=1 / 8x8dct=1 / cqm=0 / deadzone=21,11 / fast_pskip=0 / chroma_qp_offset=-3 / threads=18 / lookahead_threads=3 / sliced_threads=0 / nr=0 / decimate=1 / interlaced=0 / bluray_compat=0 / constrained_intra=0 / bframes=3 / b_pyramid=2 / b_adapt=1 / b_bias=0 / direct=1 / weightb=1 / open_gop=0 / weightp=2 / keyint=250 / keyint_min=24 / scenecut=40 / intra_refresh=0 / rc_lookahead=40 / rc=crf / mbtree=1 / crf=20.0 / qcomp=0.60 / qpmin=0 / qpmax=69 / qpstep=4 / ip_ratio=1.40 / aq=1:1.00
Default : Yes
Forced : No
Audio #1
ID : 2
Format : AC-3
Format/Info : Audio Coding 3
Codec ID : A_AC3
Duration : 1 h 53 min
Bit rate mode : Constant
Bit rate : 192 kb/s
Channel(s) : 2 channels
Channel positions : Front: L R
Sampling rate : 48.0 kHz
Frame rate : 31.250 FPS (1536 SPF)
Bit depth : 16 bits
Compression mode : Lossy
Stream size : 156 MiB (2%)
Title : [UA-MVO-KIT]
Language : Ukrainian
Service kind : Complete Main
Default : Yes
Forced : Yes
Audio #2
ID : 3
Format : DTS
Format/Info : Digital Theater Systems
Codec ID : A_DTS
Duration : 1 h 53 min
Bit rate mode : Constant
Bit rate : 768 kb/s
Channel(s) : 6 channels
Channel positions : Front: L C R, Side: L R, LFE
Sampling rate : 48.0 kHz
Frame rate : 93.750 FPS (512 SPF)
Bit depth : 24 bits
Compression mode : Lossy
Stream size : 625 MiB (7%)
Language : German
Default : No
Forced : No
Text #1
ID : 4
Format : UTF-8
Codec ID : S_TEXT/UTF8
Codec ID/Info : UTF-8 Plain Text
Duration : 1 h 45 min
Bit rate : 40 b/s
Count of elements : 948
Stream size : 31.0 KiB (0%)
Language : English
Default : No
Forced : No
Text #2
ID : 5
Format : UTF-8
Codec ID : S_TEXT/UTF8
Codec ID/Info : UTF-8 Plain Text
Duration : 1 h 53 min
Bit rate : 39 b/s
Count of elements : 870
Stream size : 32.4 KiB (0%)
Language : German
Default : No
Forced : No
Menu
00:00:00.000 : en:00:00:00.000
00:06:04.958 : en:00:06:04.958
00:09:56.542 : en:00:09:56.542
00:17:13.958 : en:00:17:13.958
00:25:41.833 : en:00:25:41.833
00:47:22.417 : en:00:47:22.417
01:02:06.292 : en:01:02:06.292
01:18:20.708 : en:01:18:20.708
01:38:23.000 : en:01:38:23.000




Джерело: &
Особиста оцінка: 0 - не дивився
Запис з ТБ DareDevil96 Синхрон drop_plz


Востаннє змінено staf777 (2021-12-31 20:06); всього редагувань: 1
[Профіль] [ПП]

Опублікувати 31-Гру-2021 20:06 (після 16 секунд)

Тему було перенесено з форуму Незабаром на трекері на форум Фільми HD, UHD
staf777
 
Показати повідомлення:    
Відповісти в темі

Поточний час: 22-Січ 19:48

Часовий пояс: UTC + 2



Ви не можете створювати нові теми на форумі
Ви не можете відповідати в темах на форумі
Ви не можете редагувати свої повідомлення на форумі
Ви не можете голосувати в опитуваннях на форумі
Ви не можете прикріплювати файли
Ви не можете завантажувати файли