Далласький клуб покупців / Dallas Buyers Club (2013) BDRemux 1080p Ukr/Eng | Sub Eng

Відповісти в темі
 
Автор Повідомлення

staf777 ®

Стаж: 1 рік 1 місяць

Повідомлень: 1296

Опублікувати 31-Гру-2021 18:11

[Цитувати]

Далласький клуб покупців / Dallas Buyers Club (2013) BDRemux 1080p Ukr/Eng | Sub Eng
Жанр: біографічний, драма, історичний
Країна: США

Кінокомпанія: Voltage Pictures, Truth Entertainment
Режисер: Жан-Марк Валі / Jean-Marc Vallée
Актори: Метью МакКонаґі / Matthew McConaughey, Джаред Лето / Jared Leto, Дженніфер Ґарнер / Jennifer Garner, Деніс О'Гейр / Denis O'Hare, Стів Зан / Steve Zahn, Майкл О'Ніл / Michael O'Neill, Даллас Робертс / Dallas Roberts, Ґріффін Данн / Griffin Dunne, Кевін Ранкін / Kevin Rankin, Донна ДюПлантє / Donna DuPlantier
Сюжет: 1985 рік. Техаському ковбою, гравцеві і хулігану ставлять страшний діагноз СНІД і дають не більше місяця життя. Але підприємливий головний герой не здається. Разом з новим другом, він налагоджує вигідний бізнес - контрабанду нелегальних ліків - і організовує "Далласький клуб покупців".
Тривалість: 01:56:57
Якість: BDRemux 1080p
Відео:
кодек: H.264
розмір кадру: 1920x1080
бітрейт: 31,2 Mб/с
Аудіо # 1:
мова:українська
переклад: багатоголосий закадровий | ААА-sound
кодек: AC3 5.1
бітрейт: 384 кб/с
Аудіо # 2:
мова: англійська
переклад: оригінал
кодек: DTS-HD MA 5.1
бітрейт: 3072 кб/с
Субтитри # 1-3:
мова: англійська
тип: пререндерні
формат: PGS

MediaInfo:

General
Unique ID : 233517024396040758801691253147800100851 (0xAFADBE33FE454D62B0F955234A22DFF3)
Complete name : M:\Фільми в HD\Драма\Dallas Buyers Club (2013) [Ukr,Eng sub.Eng] BDRemux 1080p [Hurtom].mkv
Format : Matroska
Format version : Version 4 / Version 2
File size : 28.4 GiB
Duration : 1h 56mn
Overall bit rate mode : Variable
Overall bit rate : 34.7 Mbps
Movie name : Dallas Buyers Club (2013) [Ukr,Eng sub.Eng] BDRemux 1080p [Hurtom]
Encoded date : UTC 2016-12-28 17:18:17
Writing application : mkvmerge v9.5.0 ('Quiet Fire') 64bit
Writing library : libebml v1.3.4 + libmatroska v1.4.5
Attachements : cover.jpg..jpg
Video
ID : 1
Format : AVC
Format/Info : Advanced Video Codec
Format profile : [email protected]
Format settings, CABAC : Yes
Format settings, ReFrames : 4 frames
Format settings, GOP : M=3, N=12
Codec ID : V_MPEG4/ISO/AVC
Duration : 1h 56mn
Bit rate mode : Variable
Bit rate : 31.2 Mbps
Maximum bit rate : 35.0 Mbps
Width : 1 920 pixels
Height : 1 080 pixels
Display aspect ratio : 16:9
Frame rate mode : Constant
Frame rate : 23.976 (24000/1001) fps
Color space : YUV
Chroma subsampling : 4:2:0
Bit depth : 8 bits
Scan type : Progressive
Bits/(Pixel*Frame) : 0.628
Stream size : 25.5 GiB (90%)
Title : Dallas Buyers Club (2013) BDRemux 1080p
Default : Yes
Forced : No
Audio #1
ID : 2
Format : AC-3
Format/Info : Audio Coding 3
Mode extension : CM (complete main)
Format settings, Endianness : Big
Codec ID : A_AC3
Duration : 1h 56mn
Bit rate mode : Constant
Bit rate : 384 Kbps
Channel(s) : 6 channels
Channel positions : Front: L C R, Side: L R, LFE
Sampling rate : 48.0 KHz
Frame rate : 31.250 fps (1536 spf)
Compression mode : Lossy
Stream size : 321 MiB (1%)
Title : [UA-MVO-Омікрон ]
Language : Ukrainian
Default : Yes
Forced : Yes
Audio #2
ID : 3
Format : DTS
Format/Info : Digital Theater Systems
Format profile : MA / Core
Mode : 16
Format settings, Endianness : Big
Codec ID : A_DTS
Duration : 1h 56mn
Bit rate mode : Variable / Constant
Bit rate : 3 072 Kbps / 1 509 Kbps
Channel(s) : 6 channels
Channel positions : Front: L C R, Side: L R, LFE
Sampling rate : 48.0 KHz
Frame rate : 93.750 fps (512 spf)
Bit depth : 24 bits
Compression mode : Lossless / Lossy
Stream size : 2.53 GiB (9%)
Title : ORIGINAL
Language : English
Default : No
Forced : No
Text #1
ID : 4
Format : PGS
Muxing mode : zlib
Codec ID : S_HDMV/PGS
Codec ID/Info : Picture based subtitle format used on BDs/HD-DVDs
Duration : 1h 50mn
Bit rate : 11.9 Kbps
Count of elements : 2977
Stream size : 9.42 MiB (0%)
Language : English
Default : Yes
Forced : No
Text #2
ID : 5
Format : PGS
Muxing mode : zlib
Codec ID : S_HDMV/PGS
Codec ID/Info : Picture based subtitle format used on BDs/HD-DVDs
Duration : 1h 49mn
Bit rate : 6 583 bps
Count of elements : 2804
Stream size : 5.16 MiB (0%)
Language : English
Default : No
Forced : No
Text #3
ID : 6
Format : PGS
Muxing mode : zlib
Codec ID : S_HDMV/PGS
Codec ID/Info : Picture based subtitle format used on BDs/HD-DVDs
Duration : 1h 50mn
Bit rate : 6 913 bps
Count of elements : 2976
Stream size : 5.47 MiB (0%)
Language : English
Default : No
Forced : No

Скріншоти:





Джерело: &
Особиста оцінка: 10 - без зайвих вагань рекомендую всім!


Востаннє змінено staf777 (2021-12-31 19:59); всього редагувань: 1
[Профіль] [ПП]

Опублікувати 31-Гру-2021 19:58 (після 1 година 46 хвилин)

Тему було перенесено з форуму Незабаром на трекері на форум Фільми HD, UHD
staf777
 
Показати повідомлення:    
Відповісти в темі

Поточний час: 21-Січ 19:44

Часовий пояс: UTC + 2



Ви не можете створювати нові теми на форумі
Ви не можете відповідати в темах на форумі
Ви не можете редагувати свої повідомлення на форумі
Ви не можете голосувати в опитуваннях на форумі
Ви не можете прикріплювати файли
Ви не можете завантажувати файли