Ангели Чарлі / Charlie's Angels (2019) BDRip 1080p Ukr/Eng | Sub Ukr/Eng

Відповісти в темі
 
Автор Повідомлення

staf777 ®

Стаж: 1 рік 5 місяців

Повідомлень: 3214

Опублікувати 28-Гру-2021 23:22

[Цитувати]

Ангели Чарлі / Charlie's Angels (2019) BDRip 1080p Ukr/Eng | Sub Ukr/Eng
«Сміливі. Яскраві. Нестримні»-Жанр: бойовик, комедія, пригодницький
Країна: США

Кіностудія / кінокомпанія: Columbia Pictures, 2.0 Entertainment, Brownstone Productions
Режисер: Елізабет Бенкс
Актори: Крістен Стюарт, Наомі Скотт, Елла Балинський, Сем Клафлін, Ноа Сентінео, Елізабет Бенкс, Джимон Хонсу , Патрік Стюарт, Луїс Херардо Мендес, Джонатан Такер, Нат Факсон, Кріс Пенг, Давид Шюттер, Ханна Хекстра, Джейн Чирва
Сюжет: Приватне детективне агентство Таунсенд, очолюване таємничим Чарлі, відкриває свої офіси по всьому світу, і тепер в різних куточках земної кулі команди суперпрофесійних Ангелів під керівництвом Босли забезпечують спокій і безпеку своїм клієнтам.
Тривалість: 01:57:53
Якість: BDRip 1080p
Відео:
кодек: H.264
розмір кадру: 1920x804
бітрейт: 11,2 Mб/с
Аудіо # 1:
мова: українська
переклад: професійний дубльований
кодек: AC3 5.1
бітрейт: 384 кб/с
Аудіо # 2:
мова: англійська
переклад: оригінал
кодек: AC3 5.1
бітрейт: 640 кб/с
Субтитри # 1-2: (Forced, Full)
мова:українська
тип: програмні (м'які)
формат: *.srt
Субтитри # 3-4: (Forced, Full)
мова: англійська
тип: програмні (м'які)
формат: *.srt

MediaInfo:

General
Unique ID                                : 68207763859206887305066251997324168001 (0x33505665750B04140B654E90BEAECB41)
Complete name                            : D:\Гуртом\Charlie's Angels (2019) BDRip 1080p [UKR_ENG] [Hurtom].mkv
Format                                   : Matroska
Format version                           : Version 4
File size                                : 10.1 GiB
Duration                                 : 1 h 57 min
Overall bit rate                         : 12.2 Mb/s
Movie name                               : Ангели Чарлі / Charlie's Angels (2019) BDRip 1080p [UKR_ENG] [Hurtom]
Encoded date                             : UTC 2020-03-22 19:13:58
Writing application                      : mkvmerge v30.1.0 ('Forever And More') 64-bit
Writing library                          : libebml v1.3.6 + libmatroska v1.4.9
Cover                                    : Yes
Attachments                              : cover.jpg
Video
ID                                       : 1
Format                                   : AVC
Format/Info                              : Advanced Video Codec
Format profile                           : [email protected]
Format settings                          : CABAC / 5 Ref Frames
Format settings, CABAC                   : Yes
Format settings, RefFrames               : 5 frames
Codec ID                                 : V_MPEG4/ISO/AVC
Duration                                 : 1 h 57 min
Bit rate                                 : 11.2 Mb/s
Width                                    : 1 920 pixels
Height                                   : 804 pixels
Display aspect ratio                     : 2.40:1
Frame rate mode                          : Constant
Frame rate                               : 23.976 (24000/1001) FPS
Color space                              : YUV
Chroma subsampling                       : 4:2:0
Bit depth                                : 8 bits
Scan type                                : Progressive
Bits/(Pixel*Frame)                       : 0.303
Stream size                              : 9.23 GiB (92%)
Writing library                          : x264 core 158 r2984+49 6932f4a t_mod_New [[email protected] X86_64]
Encoding settings                        : cabac=1 / ref=5 / deblock=1:-3:-3 / analyse=0x3:0x133 / me=umh / subme=10 / psy=1 / fade_compensate=0.00 / psy_rd=1.00:0.00 / mixed_ref=1 / me_range=32 / chroma_me=1 / trellis=2 / 8x8dct=1 / cqm=0 / deadzone=21,11 / fast_pskip=0 / chroma_qp_offset=-2 / threads=16 / lookahead_threads=4 / sliced_threads=0 / nr=0 / decimate=0 / interlaced=0 / bluray_compat=0 / constrained_intra=0 / fgo=0 / bframes=12 / b_pyramid=2 / b_adapt=2 / b_bias=0 / direct=3 / weightb=1 / open_gop=0 / weightp=2 / keyint=480 / keyint_min=24 / scenecut=40 / intra_refresh=0 / rc_lookahead=80 / rc=crf / mbtree=0 / crf=18.0000 / qcomp=0.60 / qpmin=0:0:0 / qpmax=69:69:69 / qpstep=4 / vbv_maxrate=62500 / vbv_bufsize=78125 / crf_max=0.0 / nal_hrd=none / filler=0 / ip_ratio=1.30 / pb_ratio=1.20 / aq=3:0.80 / aq-sensitivity=10.00 / aq-factor=1.00:1.00:1.00 / aq2=0 / aq3=0
Language                                 : English
Default                                  : Yes
Forced                                   : No
Color range                              : Limited
Color primaries                          : BT.709
Transfer characteristics                 : BT.709
Matrix coefficients                      : BT.709
Audio #1
ID                                       : 2
Format                                   : AC-3
Format/Info                              : Audio Coding 3
Commercial name                          : Dolby Digital
Codec ID                                 : A_AC3
Duration                                 : 1 h 57 min
Bit rate mode                            : Constant
Bit rate                                 : 384 kb/s
Channel(s)                               : 6 channels
Channel layout                           : L R C LFE Ls Rs
Sampling rate                            : 48.0 kHz
Frame rate                               : 31.250 FPS (1536 SPF)
Bit depth                                : 16 bits
Compression mode                         : Lossy
Stream size                              : 324 MiB (3%)
Title                                    : AC3 5.1 | 384
Language                                 : Ukrainian
Service kind                             : Complete Main
Default                                  : Yes
Forced                                   : No
Audio #2
ID                                       : 3
Format                                   : AC-3
Format/Info                              : Audio Coding 3
Commercial name                          : Dolby Digital
Codec ID                                 : A_AC3
Duration                                 : 1 h 57 min
Bit rate mode                            : Constant
Bit rate                                 : 640 kb/s
Channel(s)                               : 6 channels
Channel layout                           : L R C LFE Ls Rs
Sampling rate                            : 48.0 kHz
Frame rate                               : 31.250 FPS (1536 SPF)
Bit depth                                : 16 bits
Compression mode                         : Lossy
Stream size                              : 540 MiB (5%)
Title                                    : AC3 5.1 | 640
Language                                 : English
Service kind                             : Complete Main
Default                                  : No
Forced                                   : No
Text #1
ID                                       : 4
Format                                   : UTF-8
Codec ID                                 : S_TEXT/UTF8
Codec ID/Info                            : UTF-8 Plain Text
Duration                                 : 19 min 32 s
Bit rate                                 : 4 b/s
Count of elements                        : 11
Stream size                              : 587 Bytes (0%)
Title                                    : Forced
Language                                 : Ukrainian
Default                                  : Yes
Forced                                   : Yes
Text #2
ID                                       : 5
Format                                   : UTF-8
Codec ID                                 : S_TEXT/UTF8
Codec ID/Info                            : UTF-8 Plain Text
Duration                                 : 1 h 52 min
Bit rate                                 : 97 b/s
Count of elements                        : 1614
Stream size                              : 80.8 KiB (0%)
Title                                    : Full
Language                                 : Ukrainian
Default                                  : No
Forced                                   : No
Text #3
ID                                       : 6
Format                                   : UTF-8
Codec ID                                 : S_TEXT/UTF8
Codec ID/Info                            : UTF-8 Plain Text
Duration                                 : 19 min 32 s
Bit rate                                 : 1 b/s
Count of elements                        : 9
Stream size                              : 231 Bytes (0%)
Title                                    : English Forced
Language                                 : English
Default                                  : No
Forced                                   : No
Text #4
ID                                       : 7
Format                                   : UTF-8
Codec ID                                 : S_TEXT/UTF8
Codec ID/Info                            : UTF-8 Plain Text
Duration                                 : 1 h 52 min
Bit rate                                 : 62 b/s
Count of elements                        : 1743
Stream size                              : 51.4 KiB (0%)
Language                                 : English
Default                                  : No
Forced                                   : No
Menu
00:00:00.000                             : en:Chapter 1
00:09:49.297                             : en:Chapter 2
00:16:13.222                             : en:Chapter 3
00:25:51.425                             : en:Chapter 4
00:31:15.457                             : en:Chapter 5
00:36:58.758                             : en:Chapter 6
00:43:18.554                             : en:Chapter 7
00:46:01.926                             : en:Chapter 8
00:50:49.213                             : en:Chapter 9
00:54:32.936                             : en:Chapter 10
01:03:11.371                             : en:Chapter 11
01:10:46.868                             : en:Chapter 12
01:19:37.523                             : en:Chapter 13
01:30:10.238                             : en:Chapter 14
01:39:54.322                             : en:Chapter 15
01:44:46.780                             : en:Chapter 16

Джерело: &


Востаннє змінено staf777 (2021-12-29 11:26); всього редагувань: 1
[Профіль] [ПП]

Опублікувати 29-Гру-2021 11:25 (після 12 годин)

Тему було перенесено з форуму Незабаром на трекері на форум Фільми HD, UHD
staf777
 
Показати повідомлення:    
Відповісти в темі

Поточний час: 18-Тра 18:00

Часовий пояс: UTC + 2



Ви не можете створювати нові теми на форумі
Ви не можете відповідати в темах на форумі
Ви не можете редагувати свої повідомлення на форумі
Ви не можете голосувати в опитуваннях на форумі
Ви не можете прикріплювати файли
Ви не можете завантажувати файли