Крижане серце 2 / Frozen II (2019) BDRip 1080p Ukr/Eng | Sub Eng

Відповісти в темі
 
Автор Повідомлення

staf777 ®

Стаж: 1 рік 5 місяців

Повідомлень: 3235

Опублікувати 26-Гру-2021 19:21

[Цитувати]

Крижане серце 2 / Frozen II (2019) BDRip 1080p Ukr/Eng | Sub Eng
Жанр: анімація, комедія, мюзикл, пригодницький, сімейний, фентезі
Країна: США

Кінокомпанія: Walt Disney Animation Studios, Walt Disney Pictures
Режисер: Кріс Бак, Дженніфер Лі
Актори: Крістен Белл, Ідіна Мензел, Джош Ґад, Джонатан Грофф, Еван Рейчел Вуд, Джейсон Ріттер, Стерлінг К. Браун, Алан Т'юдік, Рейчел Меттьюз, Джеремі Сісто та інші
Сюжет: Добре знайомі герої Анна, Ельза та Крістоф зі своїм оленем Свеном знову готові до пригод. Звісно, не лишиться осторонь і сніговик Олаф. Цього разу на них чекає дивовижна подорож на північ. Вони дізнаються про нечувані раніше легенди та відкриють таємниці, що стосуються їхнього рідного краю.
Тривалість: 01:43:13
Якість: BDRip 1080p
Відео:
кодек: H.264
розмір кадру: 1920 х 804
бітрейт: 8283 Кбіт/с
Аудіо # 1:
мова: українська
переклад: професійний дубльований | студія LeDoyen
кодек: AC3 5.1
бітрейт: 640 кб/с
Аудіо # 2:
мова: українська
переклад: професійний дубльований | студія LeDoyen
кодек: DTS 5.1
бітрейт: 1536 кб/с
Аудіо # 3:
мова: англійська
переклад: оригінал
кодек: AC3 5.1
бітрейт: 640 кб/с
Субтитри # 1-2(Full)+(SDH):
мова: англійська
тип: програмні (м'які)
формат: *.srt

MediaInfo:

General
Complete name                            : Frozen II (2019) BDRip 1080p [UKR_ENG][Hurtom].mkv
Format                                   : Matroska
Format version                           : Version 4
File size                                : 7.99 GiB
Duration                                 : 1 h 43 min
Overall bit rate                         : 11.1 Mb/s
Movie name                               : Крижане серце 2 / Frozen II (2019) BDRip 1080p [UKR_ENG][Hurtom]
Encoded date                             : UTC 2020-04-07 00:13:11
Writing application                      : mkvmerge v44.0.0 ('Domino') 64-bit
Writing library                          : libebml v1.3.10 + libmatroska v1.5.2
Cover                                    : Yes
Attachments                              : cover.jpg
Video
ID                                       : 1
Format                                   : AVC
Format/Info                              : Advanced Video Codec
Format profile                           : [email protected]
Format settings                          : CABAC / 5 Ref Frames
Format settings, CABAC                   : Yes
Format settings, RefFrames               : 5 frames
Codec ID                                 : V_MPEG4/ISO/AVC
Duration                                 : 1 h 43 min
Bit rate                                 : 8 283 kb/s
Width                                    : 1 920 pixels
Height                                   : 804 pixels
Display aspect ratio                     : 2.40:1
Frame rate mode                          : Constant
Frame rate                               : 23.976 (24000/1001) FPS
Color space                              : YUV
Chroma subsampling                       : 4:2:0
Bit depth                                : 8 bits
Scan type                                : Progressive
Bits/(Pixel*Frame)                       : 0.224
Stream size                              : 5.97 GiB (75%)
Writing library                          : x264 core 158 r2984+49 6932f4a t_mod_New [[email protected] X86_64]
Encoding settings                        : cabac=1 / ref=5 / deblock=1:-3:-3 / analyse=0x3:0x133 / me=umh / subme=10 / psy=1 / fade_compensate=0.00 / psy_rd=1.00:0.00 / mixed_ref=1 / me_range=32 / chroma_me=1 / trellis=2 / 8x8dct=1 / cqm=0 / deadzone=21,11 / fast_pskip=0 / chroma_qp_offset=-2 / threads=16 / lookahead_threads=4 / sliced_threads=0 / nr=0 / decimate=0 / interlaced=0 / bluray_compat=0 / constrained_intra=0 / fgo=0 / bframes=12 / b_pyramid=2 / b_adapt=2 / b_bias=0 / direct=3 / weightb=1 / open_gop=0 / weightp=2 / keyint=480 / keyint_min=24 / scenecut=40 / intra_refresh=0 / rc_lookahead=80 / rc=crf / mbtree=0 / crf=16.0000 / qcomp=0.60 / qpmin=0:0:0 / qpmax=69:69:69 / qpstep=4 / vbv_maxrate=62500 / vbv_bufsize=78125 / crf_max=0.0 / nal_hrd=none / filler=0 / ip_ratio=1.30 / pb_ratio=1.20 / aq=3:0.80 / aq-sensitivity=10.00 / aq-factor=1.00:1.00:1.00 / aq2=0 / aq3=0
Language                                 : English
Default                                  : Yes
Forced                                   : No
Color range                              : Limited
Color primaries                          : BT.709
Transfer characteristics                 : BT.709
Matrix coefficients                      : BT.709
Audio #1
ID                                       : 2
Format                                   : AC-3
Format/Info                              : Audio Coding 3
Commercial name                          : Dolby Digital
Codec ID                                 : A_AC3
Duration                                 : 1 h 43 min
Bit rate mode                            : Constant
Bit rate                                 : 640 kb/s
Channel(s)                               : 6 channels
Channel layout                           : L R C LFE Ls Rs
Sampling rate                            : 48.0 kHz
Frame rate                               : 31.250 FPS (1536 SPF)
Bit depth                                : 16 bits
Compression mode                         : Lossy
Stream size                              : 473 MiB (6%)
Title                                    : AC3 5.1 | 640
Language                                 : Ukrainian
Service kind                             : Complete Main
Default                                  : Yes
Forced                                   : No
Audio #2
ID                                       : 3
Format                                   : DTS
Format/Info                              : Digital Theater Systems
Codec ID                                 : A_DTS
Duration                                 : 1 h 43 min
Bit rate mode                            : Constant
Bit rate                                 : 1 509 kb/s
Channel(s)                               : 6 channels
Channel layout                           : C L R Ls Rs LFE
Sampling rate                            : 48.0 kHz
Frame rate                               : 93.750 FPS (512 SPF)
Bit depth                                : 24 bits
Compression mode                         : Lossy
Stream size                              : 1.09 GiB (14%)
Title                                    : DTS 5.1 | 1536
Language                                 : Ukrainian
Default                                  : No
Forced                                   : No
Audio #3
ID                                       : 4
Format                                   : AC-3
Format/Info                              : Audio Coding 3
Commercial name                          : Dolby Digital
Codec ID                                 : A_AC3
Duration                                 : 1 h 43 min
Bit rate mode                            : Constant
Bit rate                                 : 640 kb/s
Channel(s)                               : 6 channels
Channel layout                           : L R C LFE Ls Rs
Sampling rate                            : 48.0 kHz
Frame rate                               : 31.250 FPS (1536 SPF)
Bit depth                                : 16 bits
Compression mode                         : Lossy
Stream size                              : 473 MiB (6%)
Title                                    : AC3 5.1 | 640
Language                                 : English
Service kind                             : Complete Main
Default                                  : No
Forced                                   : No
Text #1
ID                                       : 5
Format                                   : UTF-8
Codec ID                                 : S_TEXT/UTF8
Codec ID/Info                            : UTF-8 Plain Text
Duration                                 : 1 h 41 min
Bit rate                                 : 56 b/s
Count of elements                        : 1560
Stream size                              : 42.0 KiB (0%)
Title                                    : Full
Language                                 : English
Default                                  : No
Forced                                   : No
Text #2
ID                                       : 6
Format                                   : UTF-8
Codec ID                                 : S_TEXT/UTF8
Codec ID/Info                            : UTF-8 Plain Text
Duration                                 : 1 h 42 min
Bit rate                                 : 68 b/s
Count of elements                        : 1930
Stream size                              : 51.2 KiB (0%)
Title                                    : SDH
Language                                 : English
Default                                  : No
Forced                                   : No
Menu
00:00:00.000                             : en:Chapter 1
00:05:42.592                             : en:Chapter 2
00:08:27.716                             : en:Chapter 3
00:15:01.400                             : en:Chapter 4
00:16:29.655                             : en:Chapter 5
00:21:25.117                             : en:Chapter 6
00:25:45.252                             : en:Chapter 7
00:29:08.914                             : en:Chapter 8
00:33:45.023                             : en:Chapter 9
00:40:27.216                             : en:Chapter 10
00:44:37.925                             : en:Chapter 11
00:47:42.318                             : en:Chapter 12
00:53:04.515                             : en:Chapter 13
00:55:27.241                             : en:Chapter 14
01:02:36.711                             : en:Chapter 15
01:09:57.527                             : en:Chapter 16
01:13:48.382                             : en:Chapter 17
01:19:26.637                             : en:Chapter 18
01:24:28.146                             : en:Chapter 19
01:31:17.263                             : en:Chapter 20

Подяка пану Hanway за синхронізацію звуку.
Джерело:


Востаннє змінено staf777 (2021-12-26 19:41); всього редагувань: 1
[Профіль] [ПП]

Опублікувати 26-Гру-2021 19:41 (після 20 хвилин)

Тему було перенесено з форуму Незабаром на трекері на форум Мультфільми HD, UHD
staf777
 
Показати повідомлення:    
Відповісти в темі

Поточний час: 21-Тра 16:59

Часовий пояс: UTC + 2



Ви не можете створювати нові теми на форумі
Ви не можете відповідати в темах на форумі
Ви не можете редагувати свої повідомлення на форумі
Ви не можете голосувати в опитуваннях на форумі
Ви не можете прикріплювати файли
Ви не можете завантажувати файли