Десяте королівство (Серії 1-5) / The 10th Kingdom (Episodes 1-5) (2000) BDRip 1080p 2хUkr/Eng | Sub Eng

Відповісти в темі
 
Автор Повідомлення

staf777 ®

Стаж: 1 рік 1 місяць

Повідомлень: 1353

Опублікувати 08-Гру-2021 19:51

[Цитувати]

Десяте королівство (Серії 1-5) / The 10th Kingdom (Episodes 1-5) (2000) BDRip 1080p 2хUkr/Eng | Sub Eng
Жанр: сімейний, фентезі, пригодницький, комедія, детектив, екшн, мелодрама, романтичний
Країна: Велика Британія, Німеччина, США

Кінокомпанія: Babelsberg Film und Fernsehen, Carnival Film & Television, Hallmark Entertainment, NBC Studios, Production Line
Режисер: Девід Карсон / David Carson
Актори: Кімберлі Вільямс-Пейслі / Kimberly Williams-Paisley, Скотт Коен / Scott Cohen, Джон Ларрокет / John Larroquette, Діана Вейст / Dianne Wiest, Деніел Лапейн / Daniel Lapaine, Ед О’Ніл / Ed O'Neill, Рутґер Гауер / Rutger Hauer та інші
Сюжет: Казкова пригода зачарованого принца і шляхетної дівчини, яка відбувається у світах, з'єднаних магічними дзеркалами-порталами. Все почалося в момент, коли зла королева обміняла тілами спадкоємця четвертого королівства та собаку, а той втік магічним дзеркалом у сучасний Нью-Йорк. Там він натрапляє на Вірджинію та її батька Тоні. Але коли вони спробували втекти у світ принца, Вірджинію викрали Тролі, а Тоні із спадкоємцем трону, Венделом, опинилися у в'язниці. Тим часом зла королева готує коронацію фальшивого наставника, щоб заволодіти цілим королівством і помститися Білосніжці...

Тривалість: 1 серія: 01:25:00 (цілком серій: 5)
Якість: BDRip 1080p
Відео:
кодек: H.264
розмір кадру: 1920x1080
бітрейт: ~ 14.0 Mб/с
Аудіо # 1:
мова: українська
переклад: багатоголосий закадровий
кодек: AC3 2.0
бітрейт: 192 кб/с
Аудіо # 2:
мова: українська
переклад: багатоголосий закадровий
кодек: AC3 2.0
бітрейт: 192 кб/с
Аудіо # 3:
мова: англійська
переклад: оригінал
кодек: AC3 5.1
бітрейт: 448 кб/с
Субтитри:
мова: англійська
тип: програмні (м'які)
формат: *.srt

MediaInfo:

General
Unique ID : 263210162963297829600808208762819327052 (0xC6046EF6B292EFC887850F15B3B4344C)
Complete name : H:\The 10th Kingdom E02 (2000) BDRip 1080p [2xUKR_ENG] [Hurtom].mkv
Format : Matroska
Format version : Version 4 / Version 2
File size : 8.78 GiB
Duration : 1 h 24 min
Overall bit rate : 14.8 Mb/s
Movie name : The 10th Kingdom E02 (2000) BDRip 1080p [2xUKR_ENG] [Hurtom]
Encoded date : UTC 2018-07-14 17:32:53
Writing application : mkvmerge v24.0.0 ('Beyond The Pale') 64-bit
Writing library : libebml v1.3.6 + libmatroska v1.4.9
Cover : Yes
Attachments : cover.jpg / Log x264.log
Video
ID : 1
Format : AVC
Format/Info : Advanced Video Codec
Format profile : [email protected]
Format settings : CABAC / 4 Ref Frames
Format settings, CABAC : Yes
Format settings, ReFrames : 4 frames
Codec ID : V_MPEG4/ISO/AVC
Duration : 1 h 24 min
Bit rate : 14.0 Mb/s
Width : 1 920 pixels
Height : 1 080 pixels
Display aspect ratio : 16:9
Frame rate mode : Constant
Frame rate : 25.000 FPS
Color space : YUV
Chroma subsampling : 4:2:0
Bit depth : 8 bits
Scan type : Progressive
Bits/(Pixel*Frame) : 0.270
Stream size : 8.28 GiB (94%)
Title : The 10th Kingdom Part-2 2000 BDRip 1080p [MediaClub - MINION]
Writing library : x264 core 148 r2638 7599210
Encoding settings : cabac=1 / ref=4 / deblock=1:-3:-3 / analyse=0x3:0x133 / me=umh / subme=11 / psy=1 / psy_rd=1.00:0.10 / mixed_ref=1 / me_range=48 / chroma_me=1 / trellis=2 / 8x8dct=1 / cqm=0 / deadzone=21,11 / fast_pskip=0 / chroma_qp_offset=-3 / threads=6 / lookahead_threads=1 / sliced_threads=0 / nr=0 / decimate=0 / interlaced=0 / bluray_compat=0 / constrained_intra=0 / bframes=8 / b_pyramid=2 / b_adapt=2 / b_bias=0 / direct=3 / weightb=1 / open_gop=0 / weightp=2 / keyint=250 / keyint_min=25 / scenecut=40 / intra_refresh=0 / rc=2pass / mbtree=0 / bitrate=14000 / ratetol=1.0 / qcomp=0.60 / qpmin=10 / qpmax=51 / qpstep=4 / cplxblur=20.0 / qblur=0.5 / ip_ratio=1.40 / pb_ratio=1.30 / aq=1:1.00
Language : English
Default : Yes
Forced : No
Audio #1
ID : 2
Format : AC-3
Format/Info : Audio Coding 3
Codec ID : A_AC3
Duration : 1 h 24 min
Bit rate mode : Constant
Bit rate : 192 kb/s
Channel(s) : 2 channels
Channel positions : Front: L R
Sampling rate : 48.0 kHz
Frame rate : 31.250 FPS (1536 SPF)
Bit depth : 16 bits
Compression mode : Lossy
Stream size : 116 MiB (1%)
Title : MVO - НЛО-ТВ
Language : Ukrainian
Service kind : Complete Main
Default : Yes
Forced : Yes
Audio #2
ID : 3
Format : AC-3
Format/Info : Audio Coding 3
Codec ID : A_AC3
Duration : 1 h 24 min
Bit rate mode : Constant
Bit rate : 192 kb/s
Channel(s) : 2 channels
Channel positions : Front: L R
Sampling rate : 48.0 kHz
Frame rate : 31.250 FPS (1536 SPF)
Bit depth : 16 bits
Compression mode : Lossy
Stream size : 116 MiB (1%)
Title : MVO - ICTV
Language : Ukrainian
Service kind : Complete Main
Default : No
Forced : No
Audio #3
ID : 4
Format : AC-3
Format/Info : Audio Coding 3
Codec ID : A_AC3
Duration : 1 h 24 min
Bit rate mode : Constant
Bit rate : 448 kb/s
Channel(s) : 6 channels
Channel positions : Front: L C R, Side: L R, LFE
Sampling rate : 48.0 kHz
Frame rate : 31.250 FPS (1536 SPF)
Bit depth : 16 bits
Compression mode : Lossy
Stream size : 271 MiB (3%)
Language : English
Service kind : Complete Main
Default : No
Forced : No
Text #1
ID : 5
Format : UTF-8
Codec ID : S_TEXT/UTF8
Codec ID/Info : UTF-8 Plain Text
Duration : 1 h 21 min
Bit rate : 55 b/s
Count of elements : 1296
Stream size : 33.4 KiB (0%)
Language : English
Default : No
Forced : No
Text #2
ID : 6
Format : UTF-8
Codec ID : S_TEXT/UTF8
Codec ID/Info : UTF-8 Plain Text
Duration : 1 h 24 min
Bit rate : 59 b/s
Count of elements : 1473
Stream size : 36.8 KiB (0%)
Title : SDH
Language : English
Default : No
Forced : No
Menu
00:00:00.000 : en:00:00:00.000
00:01:17.358 : en:00:01:17.358
00:24:36.038 : en:00:24:36.038
00:41:13.880 : en:00:41:13.880
00:57:34.679 : en:00:57:34.679
01:11:37.158 : en:01:11:37.158
01:23:38.198 : en:01:23:38.198

Скріншоти:



Схожі релізи
Додано Роздачі Розмір Сід | Ліч
17-Гру-21 20:42 Шан-Чі та легенда десяти кілець / Shang-Chi and the Legend of the Ten Rings (2021) WEB-DL 720p 2xUkr/Eng | Sub Eng [IMAX Edition] 7.53 GB 2 | 0


Востаннє змінено staf777 (2021-12-09 16:41); всього редагувань: 1
[Профіль] [ПП]

Опублікувати 09-Гру-2021 16:41 (після 20 годин)

Тему було перенесено з форуму Незабаром на трекері на форум Серіали HD, UHD
staf777
 
Показати повідомлення:    
Відповісти в темі

Поточний час: 24-Січ 14:54

Часовий пояс: UTC + 2



Ви не можете створювати нові теми на форумі
Ви не можете відповідати в темах на форумі
Ви не можете редагувати свої повідомлення на форумі
Ви не можете голосувати в опитуваннях на форумі
Ви не можете прикріплювати файли
Ви не можете завантажувати файли