Стань одним з нас!
 

Anonymous

Новий порядок / Nuevo orden / New Order (2020) BDRip Жанр: драма
Країна: Мексика, Франція

Кінокомпанія: Les Films d’Ici, Teorema Films
Режисер: Мішель Франко
Актори: Найан Гонзалез Норвінд, Фернандо Куаутле, Дієґо Бонета, Саманта Язарет Анайа....
Сюжет: Розкішне весілля представників вищого класу переривається візитом непроханих гостей, — у країні починаються бунти зі зростанням класової ненависті та сплеском насильства.
Тривалість: 01:25:54
Якість: BDRip
Відео:
кодек: XviD
розмір кадру: 656x272
бітрейт: 1 076 кб/с
Аудіо:
мова: українська
переклад: багатоголосий закадровий | В одне рило
кодек: MP3
бітрейт: 128 кб/с
Субтитри:
мова: українська
тип: програмні (м'які)
формат: *.srt
переклад: SubAutumn

МІ

General
Complete name : G:\Фільми\Nuevo orden.(2020) BDRip [Hurtom]\Nuevo orden.(2020) BDRip [Hurtom].avi
Format : AVI
Format/Info : Audio Video Interleave
File size : 748 MiB
Duration : 1 h 25 min
Overall bit rate : 1 217 kb/s
Video
ID : 0
Format : MPEG-4 Visual
Format profile : Advanced
Format settings : BVOP1 / Custom Matrix
Format settings, BVOP : 1
Format settings, QPel : No
Format settings, GMC : No warppoints
Format settings, Matrix : Custom
Codec ID : XVID
Codec ID/Hint : XviD
Duration : 1 h 25 min
Bit rate : 1 076 kb/s
Width : 656 pixels
Height : 272 pixels
Display aspect ratio : 2.40:1
Frame rate : 24.000 FPS
Color space : YUV
Chroma subsampling : 4:2:0
Bit depth : 8 bits
Scan type : Progressive
Compression mode : Lossy
Bits/(Pixel*Frame) : 0.251
Stream size : 661 MiB (88%)
Writing library : XviD 73
Audio
ID : 1
Format : MPEG Audio
Format version : Version 1
Format profile : Layer 3
Codec ID : 55
Codec ID/Hint : MP3
Duration : 1 h 25 min
Bit rate mode : Constant
Bit rate : 128 kb/s
Channel(s) : 2 channels
Sampling rate : 48.0 kHz
Compression mode : Lossy
Stream size : 78.6 MiB (11%)
Alignment : Aligned on interleaves
Interleave, duration : 24 ms (0.58 video frame)
Writing library : LAME3.100ªªªªDFÛh†

Скріншоти





Джерело:
Особиста оцінка: 10 - без зайвих вагань рекомендую всім!
Показати повідомлення:    

Поточний час: 27-Лют 19:20

Часовий пояс: UTC + 3


Ви не можете створювати нові теми на форумі
Ви не можете відповідати в темах на форумі
Ви не можете редагувати свої повідомлення на форумі
Ви не можете видаляти свої повідомлення на форумі
Ви не можете голосувати в опитуваннях на форумі
Ви не можете прикріплювати файли
Ви не можете завантажувати файли