WhiteBear60

Ліга Чемпіонів UEFA 2022/23 | Третій кваліфікаційний раунд | Динамо (Київ, Україна) - Штурм (Ґрац, Австрія) | Перший матч Про матч:
3 серпня 2022 року, польський Лодзь, стадіон "ЛКС" імені Владислава Крола. Після перемоги над "Фенербахче" у "котлі" під назвою "Щюкрю Сарачоглу", який відомий своїми вболівальниками, кияни повертаються у Лодзь на перший матч третього кваліфікаційного раунду Ліги Чемпіонів між київським "Динамо" та "Штурмом" із Ґраца. Кияни вже гарантували собі єврокубкову осінь. Переможець цієї пари зійдеться у раунді плей-оф із переможцем пари Бенфіка - Мітьюланд. Якщо кияни програють, вони автоматично відправляться у груповий етап Ліги Європи.
Матч обслуговували:
Рефері: Франсуа Летесьє (Франція)
Асистенти рефері: Сіріль Муньє (Франція), Мехді Рахмуні (Франція)
Четвертий арбітр: Жеремі Стіна (Франція)
Додаткова інформація:
Присутні двадцять хвилин трансляції без коментатора із розминкою команд (на загальному плані, і з нарізкою приїзду команд, а також розминкою деяких гравців крупним планом)
Картинка із Setanta Sports, коментар із 2+2 доповнений інтершумом із Setanta Sports у місцях, де він на початку та у кінці трансляції відсутній

Телеканал: Setanta Sports
Якість: IPTV
Відео:
кодек: H.264
розмір кадру: 1920x1080
бітрейт: ~5140 кб/с
Аудіо №1:
мова: українська
коментар: одноголосий закадровий | Вадим Власенко | Setanta Sports
кодек: AAC 2.0
бітрейт: 128 кб/с
Аудіо №2:
мова: українська
коментар: двоголосий закадровий | Володимир Звєров, Олександр Золотогорський | 2+2
кодек: AAC 2.0
бітрейт: 128 кб/с
Аудіо №3:
мова: українська
коментар: відсутній | Інтершум
кодек: AAC 2.0
бітрейт: 128 кб/с

Тривалість

[center]02:12:10[/center]

MediaInfo

General
Unique ID                                : 218998219277597723329614356755590216232 (0xA4C185D804918F05C2FBC0FCF0B4FA28)
Complete name                            : UEFA.Champions.League.2022-23.Third.Qualifying.Round.FC.Dynamo.Kyiv-SK.Sturm.Graz.1st.Leg.Setanta.Sports.IPTV.1080p.2xUkr.Int.mkv
Format                                   : Matroska
Format version                           : Version 4
File size                                : 5.11 GiB
Duration                                 : 2 h 12 min
Overall bit rate                         : 5 531 kb/s
Movie name                               : UEFA Champions League 2022/23. Third Qualifying Round. FC Dynamo Kyiv - SK Sturm Graz. 1st Leg
Encoded date                             : UTC 2022-08-09 13:57:24
Writing application                      : mkvmerge v69.0.0 ('Day And Age') 64-bit
Writing library                          : libebml v1.4.2 + libmatroska v1.6.4 / Lavf58.76.100
Cover                                    : Yes
Attachments                              : cover.png
Video
ID                                       : 1
Format                                   : AVC
Format/Info                              : Advanced Video Codec
Format profile                           : Main@L4
Format settings                          : 2 Ref Frames
Format settings, CABAC                   : No
Format settings, Reference frames        : 2 frames
Format settings, GOP                     : M=3, N=25
Codec ID                                 : V_MPEG4/ISO/AVC
Duration                                 : 2 h 12 min
Bit rate                                 : 5 139 kb/s
Width                                    : 1 920 pixels
Height                                   : 1 080 pixels
Display aspect ratio                     : 16:9
Frame rate mode                          : Constant
Frame rate                               : 25.000 FPS
Color space                              : YUV
Chroma subsampling                       : 4:2:0
Bit depth                                : 8 bits
Scan type                                : Progressive
Bits/(Pixel*Frame)                       : 0.099
Stream size                              : 4.74 GiB (93%)
Title                                    : UEFA Champions League 2022/23. Third Qualifying Round. FC Dynamo Kyiv - SK Sturm Graz. 1st Leg
Language                                 : English
Default                                  : Yes
Forced                                   : No
Audio #1
ID                                       : 2
Format                                   : AAC LC
Format/Info                              : Advanced Audio Codec Low Complexity
Codec ID                                 : A_AAC-2
Duration                                 : 2 h 12 min
Bit rate                                 : 128 kb/s
Channel(s)                               : 2 channels
Channel layout                           : L R
Sampling rate                            : 48.0 kHz
Frame rate                               : 46.875 FPS (1024 SPF)
Compression mode                         : Lossy
Stream size                              : 121 MiB (2%)
Title                                    : Commentaries by Yuriy Kyrychenko
Language                                 : Ukrainian
Default                                  : Yes
Forced                                   : No
Audio #2
ID                                       : 3
Format                                   : AAC LC
Format/Info                              : Advanced Audio Codec Low Complexity
Codec ID                                 : A_AAC-2
Duration                                 : 2 h 12 min
Bit rate                                 : 128 kb/s
Channel(s)                               : 2 channels
Channel layout                           : L R
Sampling rate                            : 48.0 kHz
Frame rate                               : 46.875 FPS (1024 SPF)
Compression mode                         : Lossy
Stream size                              : 121 MiB (2%)
Title                                    : Commentaries by Volodymyr Zvierov and Oleksandr Zolotohorskyi
Language                                 : Ukrainian
Default                                  : No
Forced                                   : No
Audio #3
ID                                       : 4
Format                                   : AAC LC
Format/Info                              : Advanced Audio Codec Low Complexity
Codec ID                                 : A_AAC-2
Duration                                 : 2 h 12 min
Bit rate                                 : 128 kb/s
Channel(s)                               : 2 channels
Channel layout                           : L R
Sampling rate                            : 48.0 kHz
Frame rate                               : 46.875 FPS (1024 SPF)
Compression mode                         : Lossy
Stream size                              : 121 MiB (2%)
Title                                    : International sound
Language                                 : English
Default                                  : Yes
Forced                                   : No
Menu
00:00:00.000                             : uk:Warm-Up
00:22:35.000                             : uk:Half 1
01:17:19.336                             : uk:Half 2

Стартові склади

Gljuk4

Молодці - залишився один крок до ЛЧ
наступна Бенфіка

WhiteBear60

staf777, Хіба? Це ж тільки перший матч, тут ще нічого не вирішено, тільки 1-0 у Лодзі :)
Другий буде десь після обіду

Gljuk4

staf777, Хіба? Це ж тільки перший матч, тут ще нічого не вирішено, тільки 1-0 у Лодзі :)
Другий буде десь після обіду
Ну що - все вирішено - що правда - здається мені - що Бенфіка не по зубам - Динамо ... та і Яремчук розігрався дуже ab
я не фанат Динамо - навпаки бо вболіваю за Шахтар ag - но ні сумнівався що Штурм пройдуть ... коли вчора Динамо програвало 1-0 а потім був додатковий час - був впевнений що Динамо зрівняє рахунок і все буде ок - но вони не тільки зрівняли а ще і забили другий az
Показати повідомлення:    

Поточний час: 13-Лип 13:00

Часовий пояс: UTC + 3


Ви не можете створювати нові теми на форумі
Ви не можете відповідати в темах на форумі
Ви не можете редагувати свої повідомлення на форумі
Ви не можете видаляти свої повідомлення на форумі
Ви не можете голосувати в опитуваннях на форумі
Ви не можете прикріплювати файли
Ви не можете завантажувати файли