Пошук знайшов 29 збігів

Автор Повідомлення

Zuim

Опублікувати 09-Лис-2022 21:51

[Цитувати]

Дякую!

Zuim

Опублікувати 09-Лис-2022 11:11

[Цитувати]

Дайте вогню, будь-ласка )

Anonymous

Опублікувати 15-Чер-2022 18:34

[Цитувати]

Козаки. Футбол (Сезон 1, всі серії українською) (2016) SiteRip 720p

Aльтернативні постери


Жанр: анімація, пригодницький, комедія
Країна: Україна
Кіностудія / кінокомпанія:
Режисер: Марина Медвідь
Генеральний продюсер: Едуард Ахрамович
Сюжет: Запорозькі козаки Око, Грай і Тур мандрують країнами Європейського Союзу та землями третього світу. У кожній з яких знайомляться з місцевим колоритом, потрапляють у чудернацькі історії та грають у свій футбол.
Тривалість: 1 серія: 02:40 (цілком серій: 26)

Перелік серій

1. Франція
2. Іспанія
3. Швейцарія
4. Швеція
5. Чехія
6. Англія
7. Німеччина
8. Бельгія
9. Італія
10. Румунія
11. Ірландія
12. Вельс
13. Португалія
14. Греція
15. Польща
16. Данія
17. Ісландія
18. Угорщина
19. Туреччина
20. Ізраїль
21. Норвегія
22. Шотландія
23. Хорватія
24. Австрія
25. Нідерланди
26. Фінляндія
Якість: SiteRip 720p
Відео:
зображення: професійна українізація
кодек: H.264
розмір кадру: 1 280 х 720
бітрейт: ~6 500 кб/с
Аудіо:
мова: відсутня, музичний супровід
кодек: AAC 2.0
бітрейт: ~129 кб/с

Відбитки





[






Джерело: & Lpershyi
Особиста оцінка: 1 - не раджу дивитисяНад релізом працювали:
Запис та обробка звуку: проект Перший, Степан
Ріпи, зведення, обкладинка: lpershyi
Aльтернативні постери: zed
Есклюзивна подяка: українському загальнонаціональному телеканалу - за українізацію українського продукту.

Перегляд міні серіалу рекомендовано дітям старше 7 років!

Anonymous

Опублікувати 15-Чер-2022 18:34

[Цитувати]

Хоробрі зайці (Сезон 1) (2020) WEBRip 1080p Жанр: анімація, дитячий
Країна: Україна, Мексика, Іспанія

Кінокомпанія: Anima Estudios, Glowberry
Режисер: Тім Ференбах (Tim Fehrenbach) та Ольга Черепанова (Olga Cherepanova)
Актори/ролі озвучують: Дем`ян Бецько, Сніжана Вересоцька, Лев Пічахи, Олена Кравець, Потап (Олексій Потапенко), Лариса Руснак, Єлизавета Мастаєва
Сюжет:Надзвичайно допитливі та Хоробрі Зайці — братик і сестричка Боп та Бу вирушають у захопливу подорож Зайцесвітом разом із Мамою Заєю, Татом Заєм та чотирма Займалятами. Під час цієї подорожі на Хоробрих Зайців чекають відкриття, знайомства з новими друзями та неймовірні розваги. Тривалість: 1 серія: 07:06 (цілком серій: 52 з 52 (1 сезон))

Перелік серій

1. Хоробрі герої.
2. Складне завдання.
3. У кого м`яч?
4. Морквяні перегони.
5. Творці музики.
6. Повільно, зате надійно.
7. Працьовиті будівники.
8. Перший сніг.
9. Королева гори.
10. Хто найкращий?
11. Агов, хто там, внизу?
12. Пляжний балет.
13. Повний хобот пригод.
14. Шкарпеткова вистава.
15. Великий безлад.
16. Драконяча історія.
17. Захований скарб.
18. Прудкі стрибунці.
19. Неперевершений джем.
20. Магія кольорів.
21. Лісові пошуки.
22. Вечірка з орігамі.
23. Сюрприз!
24. Шеф-кухарі.
25. Зайцехокей.
26. Армія пушинок.
27. Брррум посеред дюн.
28. Святковий плакат.
29. М`яч і ракета.
30. Морські рятівники.
31. Дослідники джунглів.
32. Правила Рікі.
33. Повторюй за мною.
34. Чемпіони дня.
35. Музика дощу.
36. Цікаве полювання.
37. Що тепер?
38. Бульбашкові пригоди.
39. Нумо ричати.
40. Нічний гість.
41 Екстраординарний хвіст.
42. Туманні чари.
43. Перегони у савані.
44. Пожонглюємо?
45. Ніч гарбузяних жахів.
46. Порятунок від дощу.
47. Три випробування.
48. Уроки стрибків.
49. Тиха година.
50. Парад капелюхів.
51. Осіння колискова.
52. Щасливого сніжного року!
Якість: WEBRip 1080p
Відео:
кодек: H.264
розмір кадру: 1920 х 1080
бітрейт: 3227 кб/с
Аудіо:
мова: українська
переклад: професійний дубльований
кодек: AAC 2.0
бітрейт: 160,9 кб/с
Джерело озвучення:

Скріншоти





Джерело:
Особиста оцінка: 10 - без зайвих вагань рекомендую всім!

Anonymous

Опублікувати 15-Чер-2022 18:34

[Цитувати]

Всі одноіменні релізи на трекері
Небезпечна зона (Сезон 1) (2019) WEBRip 1080p
Жанр: ситком, комедія, пародія
Країна: Україна
Студія: NLO TV
Режисер: Євгенія Кіракосян
Сюжет:У самому центрі України виникла зона екологічної катастрофи та звалище радіаційних відходів. Після евакуації людей звірі, які лишились у зоні, еволюціонували та утворили суспільство. У «Небезпечній зоні» залишилась жити тільки одна родина людей – Карпенки. Голова сім’ї Толік з усіх сил намагається стати взірцем для свого сина Андрія. Андрій – цинічний підліток, у якого пранки та жарти над батьком – головна життєва потреба. Інші члени родини: мама Оля, донька Іра, інтелектуал Черепах і дід Мирон. Карпенки намагаються залишатися пересічною українською родиною, проте це не так просто, коли живеш поміж людозвірів.Тривалість: 1 серія: 20:39 (цілком серій: 8)
Якість: WEBRip
Відео: кодек: H.264 розмір кадру: 1920 x 1080 бітрейт: 700 кб/с
Аудіо: мова: українська переклад: оригінал кодек: AАС 2.0 бітрейт: 160 кб/с

Перелік серій

01-08

Інформація про файл:

General
Unique ID : 159951038579145796502004283633514942608 (0x785573115A76C806521E39B006999090)
Complete name : D:\Documents\Torrents\MULTSER\Небезпечна зона 1080p WEBRip\Небезпечна.Зона.E01.1080p.WEBRip.mkv
Format : Matroska
Format version : Version 4
File size : 136 MiB
Duration : 22 min 2 s
Overall bit rate : 864 kb/s
Writing application : VideoReDo (Lavf56.25.101)
Writing library : VideoReDo (Lavf56.25.101)
Video
ID : 1
Format : AVC
Format/Info : Advanced Video Codec
Format profile :
Format settings : CABAC / 3 Ref Frames
Format settings, CABAC : Yes
Format settings, Reference : 3 frames
Codec ID : V_MPEG4/ISO/AVC
Duration : 22 min 2 s
Width : 1 920 pixels
Height : 1 080 pixels
Display aspect ratio : 16:9
Frame rate mode : Constant
Frame rate : 23.976 FPS
Color space : YUV
Chroma subsampling : 4:2:0
Bit depth : 8 bits
Scan type : Progressive
Default : No
Forced : No
Color range : Limited
Color primaries : BT.709
Transfer characteristics : BT.709
Matrix coefficients : BT.709
Audio
ID : 2
Format : AAC LC
Format/Info : Advanced Audio Codec Low Complexity
Codec ID : A_AAC-2
Duration : 22 min 2 s
Channel(s) : 2 channels
Channel layout : L R
Sampling rate : 44.1 kHz
Frame rate : 43.066 FPS (1024 SPF)
Compression mode : Lossy
Language : Russian
Default : Yes
Forced : No
Скріншоти:

Запис: sergiyko

Anonymous

Опублікувати 15-Чер-2022 18:34

[Цитувати]

Лис Микита (26 серій з 26) (2005) WEBRip 1080p
Жанр: казка, комедія
Країна: Україна
Режисер: Володимир Кметик, Михайло Яремко
Актори/ролі озвучують: Володимир Дорожинський, Володимир Кметик, Василь Мазур, Анатолій Паламаренко, Олексій Паламаренко, Іван Попович, Андрій Чаюк
Сюжет:У серіалі розповідається про пригоди хитрого та розумного Лиса Микити. Про цікаві витівки, які він завдає іншим звірятам та як виплутується зі всіляких ситуацій.
Лис Микита — перший український багатосерійний мультиплікаційний серіал знятий після здобуття Україною незалежності. Серіал знято за мотивами сатиричної поеми-казки Івана Франка "Лис Микита". Його виготовлено на замовлення Всеукраїнського товариства «Просвіта» на кіностудії «Фрески» з 2005 до 2007 року. Бюджет картини склав 10 млн. грн (за іншими даними 6 млн. грн). Прем’єрний показ мультсеріалу «Лис Микита» відбувся у кінотеатрі «Кінопалац» 15 червня 2007 року. На телеекрани мультфільм вийшов в ефірі Першого національного у 2009 році.
Тривалість: 1 серія: 15:00 (цілком серій: 26)
Якість: WEBRip
Відео: кодек: H.264 розмір кадру: 1920 х 1080 бітрейт: 2500 кб/с
Аудіо: мова: українська переклад: оригінал кодек: AAC 2.0 бітрейт: 128 кб/с
Джерело озвучення:

Перелік серій:

01 Вовк Неситий
02 Гектор Цуцик
03 Півень
04 Медвідь
05 Колода
06 Кіт Мурлика
07 Спіжарня
08 Трибунал
09 Вирок
10 Курятник
11 Бурмилів
12 Іронія долі
13 Вовче лихо
14 Овечий патріот
15 Шевчик
16 Заєць
17 Лист Цареві
18 Цап Базилій
19 Шкапа
20 Голос з неба
21 Паламар
22 Мавпа Фрузя
23 Рибалка
24 Криниця
25 Двобій
26 Канцлер його величності

Інформація про файл:

Загальна інформація
Повна назва : D:\Torrents\Лис Микита WEBRip 1080p\Лис Микита.1 серія.Вовк Неситий.1080p.WEBRip.mp4
Формат : MPEG-4
Профіль формату : Base Media
Ідентифікатор кодеку : isom (isom/iso2/avc1/mp41)
Розмір файлу : 264 МіБ
Тривалість : 14 хв. 16 сек.
Режим загального бітрейту : Змінний (VBR)
Загальний бітрейт : 2 585 Кбіт/сек
Програма кодування : Lavf55.49.100
Відео
Ідентифікатор : 1
Формат : AVC
Формат/Відомості : Advanced Video Codec
Профіль формату :
Налаштування формату, CABAC : Так
Налаштування формату, ReFrames : 3 кадр(-и,-ів)
Ідентифікатор кодеку : avc1
Ідентифікатор кодеку/Відомості : Advanced Video Coding
Тривалість : 14 хв. 16 сек.
Бітрейт : 2 453 Кбіт/сек
Ширина кадру : 1 920 пікс.
Висота кадру : 1 080 пікс.
Співвідношення сторін екрану : 16:9
Режим частоти кадрів : Постійний
Частота кадрів : 25.000 кадр/сек
Простір кольору : YUV
Субдискретизація хроматичності : 4:2:0
Бітова глибина : 8 біт
Тип сканування : Прогресивний
Біт/(Пікселі*Кадри) : 0.047
Розмір потоку : 250 МіБ (95%)
colour_range : Limited
Основні кольори : BT.709
Характеристики трансферу : BT.709
Матричні коефіцієнти : BT.709
Аудіо
Ідентифікатор : 2
Формат : AAC
Формат/Відомості : Advanced Audio Codec
Профіль формату : LC
Ідентифікатор кодеку : 40
Тривалість : 14 хв. 16 сек.
Режим розрахунку бітрейта : Змінний (VBR)
Бітрейт : 128 Кбіт/сек
Кількість каналів : 2 канал(-и,-ів)
Позиції каналів : Front: L R
Частота дискретизації : 48.0 кГц
Частота кадрів : 46.875 кадр/сек (1024 spf)
Тип стиснення : Із втратами
Розмір потоку : 13.0 МіБ (5%)
Мова : English
Default : Так
Alternate group : 1
Скріншоти:

Реліз: sergiykoВсі одноіменні релізи на трекері

Anonymous

Опублікувати 15-Чер-2022 18:34

[Цитувати]

Професіонали (1 серія - Кухар) (2015) WEB-DL 720p Жанр: Комедія
Країна: Україна
Кінокомпанія: «Новаторфільм», за підтримки Державного агентства України з питань кіно
Режисер: Степан Коваль
Актори/ролі озвучують: Ю. Коваленко, К. Буцька, Р. Чупіс, Г. Василенко, М. Бистрякова
Сюжет:Кожна серія починається питанням головних персонажів КИМ БУТИ? Вони уявляють себе професіоналами в різних галузях та намагаються оволодіти певними професіями та опиняються там, де потрібна чергова професія: на будівельному майданчику, в лікарні, у меблевий цеху, в авто і т. ін.
Друзям щоразу вдається закінчити справу разом із справжніми професіоналами – побудувати будинок, випекти торт, вилікувати когось і почути подяку.
Тривалість: 1 серія: 05:28 (цілком серій: 10)

Перелік серій

1. Кухар
2. Будівельник
3. Водій
4. Лікар
5. Столяр
6. Садівник
7. Музикант
8. Вчитель
9. Художник
10. Журналіст
Якість: WEBDLRip
Відео:
кодек: H.264
розмір кадру: 1280 х 720
бітрейт: 1838 кб/с
Аудіо:
мова: українська
переклад: оригінал
кодек: AAC 2.0
бітрейт: 160 кб/с
Субтитри:
мова: англійська
тип: вбудовані (жорсткі)

Скріншоти





Джерело:
Особиста оцінка: 10 - без зайвих вагань рекомендую всім!

Anonymous

Опублікувати 15-Чер-2022 18:34

[Цитувати]

Все про козаків (1967-1995) SiteRip 1080p Жанр: анімація, пригодницький, комедія
Країна: УРСР, Україна
Кінокомпанія: Київнаукфільм, Укранімафільм
Режисер: 1-8 серії - Володимир Дахно, 9 серія - Володимир Дахно, Тадеуш Павленко
Сюжет:У сюжетах мультфільму герої потрапляють у неймовірні пригоди, зустрічаючись з людьми з різних країн і епох, навіть з богами та інопланетянами. У мультфільмах відсутні діалоги і будь-який текст, за винятком вступного або заключного слова «від автора», — дія відбувається у вигляді інтуїтивно зрозумілих сцен.Тривалість: 1 серія: 9-19 хв (цілком серій: 9)

Перелік серій

1. Як козаки куліш варили (1967) 09:51
2. Як козаки у футбол грали (1970) 18:29
3. Як козаки наречених визволяли (1973) 18:53
4. Як козаки сіль купували (1975) 09:21
5. Як козаки олімпійцями стали (1978) 17:39
6. Як козаки мушкетерам допомагали (1979) 17:40
7. Як козаки на весіллі гуляли (1984) 19:37
8. Як козаки інопланетян зустрічали (1987) 17:28
9. Як козаки в хокей грали (1995) 17:58

Звіт Mediainfo

General
Complete name : 1. Як козаки куліш варили (1967).mp4
Format : MPEG-4
Format profile : Base Media
Codec ID : isom (isom/iso2/avc1/mp41)
File size : 158 MiB
Duration : 9 min 51 s
Overall bit rate : 2 240 kb/s
Writing application : Lavf58.20.100
Video
ID : 1
Format : AVC
Format/Info : Advanced Video Codec
Format profile :
Format settings : CABAC / 4 Ref Frames
Format settings, CABAC : Yes
Format settings, Reference frames : 4 frames
Codec ID : avc1
Codec ID/Info : Advanced Video Coding
Duration : 9 min 51 s
Bit rate : 2 106 kb/s
Width : 1 384 pixels
Height : 1 080 pixels
Display aspect ratio : 1.281
Frame rate mode : Constant
Frame rate : 25.000 FPS
Color space : YUV
Chroma subsampling : 4:2:0
Bit depth : 8 bits
Scan type : Progressive
Bits/(Pixel*Frame) : 0.056
Stream size : 149 MiB (94%)
Title : ISO Media file produced by Google Inc.
Writing library : x264 core 155 r2917 0a84d98
Encoding settings : cabac=1 / ref=3 / deblock=1:0:0 / analyse=0x3:0x113 / me=hex / subme=7 / psy=1 / psy_rd=1.00:0.00 / mixed_ref=1 / me_range=16 / chroma_me=1 / trellis=1 / 8x8dct=1 / cqm=0 / deadzone=21,11 / fast_pskip=1 / chroma_qp_offset=-2 / threads=18 / lookahead_threads=3 / sliced_threads=0 / nr=0 / decimate=1 / interlaced=0 / bluray_compat=0 / constrained_intra=0 / bframes=3 / b_pyramid=2 / b_adapt=1 / b_bias=0 / direct=1 / weightb=1 / open_gop=0 / weightp=2 / keyint=250 / keyint_min=25 / scenecut=40 / intra_refresh=0 / rc_lookahead=40 / rc=crf / mbtree=1 / crf=23.0 / qcomp=0.60 / qpmin=0 / qpmax=69 / qpstep=4 / ip_ratio=1.40 / aq=1:1.00
Codec configuration box : avcC
Audio
ID : 2
Format : AAC LC
Format/Info : Advanced Audio Codec Low Complexity
Codec ID : mp4a-40-2
Duration : 9 min 51 s
Bit rate mode : Constant
Bit rate : 128 kb/s
Channel(s) : 2 channels
Channel layout : L R
Sampling rate : 44.1 kHz
Frame rate : 43.066 FPS (1024 SPF)
Compression mode : Lossy
Stream size : 9.04 MiB (6%)
Title : ISO Media file produced by Google Inc.
Default : Yes
Alternate group : 1
General
Complete name : 2. Як козаки у футбол грали (1970).mp4
Format : MPEG-4
Format profile : Base Media
Codec ID : isom (isom/iso2/avc1/mp41)
File size : 433 MiB
Duration : 18 min 29 s
Overall bit rate : 3 274 kb/s
Writing application : Lavf58.20.100
Video
ID : 1
Format : AVC
Format/Info : Advanced Video Codec
Format profile :
Format settings : CABAC / 4 Ref Frames
Format settings, CABAC : Yes
Format settings, Reference frames : 4 frames
Codec ID : avc1
Codec ID/Info : Advanced Video Coding
Duration : 18 min 29 s
Bit rate : 3 139 kb/s
Width : 1 384 pixels
Height : 1 080 pixels
Display aspect ratio : 1.281
Frame rate mode : Constant
Frame rate : 25.000 FPS
Color space : YUV
Chroma subsampling : 4:2:0
Bit depth : 8 bits
Scan type : Progressive
Bits/(Pixel*Frame) : 0.084
Stream size : 415 MiB (96%)
Title : ISO Media file produced by Google Inc.
Writing library : x264 core 155 r2917 0a84d98
Encoding settings : cabac=1 / ref=3 / deblock=1:0:0 / analyse=0x3:0x113 / me=hex / subme=7 / psy=1 / psy_rd=1.00:0.00 / mixed_ref=1 / me_range=16 / chroma_me=1 / trellis=1 / 8x8dct=1 / cqm=0 / deadzone=21,11 / fast_pskip=1 / chroma_qp_offset=-2 / threads=18 / lookahead_threads=3 / sliced_threads=0 / nr=0 / decimate=1 / interlaced=0 / bluray_compat=0 / constrained_intra=0 / bframes=3 / b_pyramid=2 / b_adapt=1 / b_bias=0 / direct=1 / weightb=1 / open_gop=0 / weightp=2 / keyint=250 / keyint_min=25 / scenecut=40 / intra_refresh=0 / rc_lookahead=40 / rc=crf / mbtree=1 / crf=23.0 / qcomp=0.60 / qpmin=0 / qpmax=69 / qpstep=4 / ip_ratio=1.40 / aq=1:1.00
Codec configuration box : avcC
Audio
ID : 2
Format : AAC LC
Format/Info : Advanced Audio Codec Low Complexity
Codec ID : mp4a-40-2
Duration : 18 min 29 s
Bit rate mode : Constant
Bit rate : 128 kb/s
Channel(s) : 2 channels
Channel layout : L R
Sampling rate : 44.1 kHz
Frame rate : 43.066 FPS (1024 SPF)
Compression mode : Lossy
Stream size : 17.0 MiB (4%)
Title : ISO Media file produced by Google Inc.
Default : Yes
Alternate group : 1
General
Complete name : 3. Як козаки наречених визволяли (1973).mp4
Format : MPEG-4
Format profile : Base Media
Codec ID : isom (isom/iso2/avc1/mp41)
File size : 348 MiB
Duration : 18 min 53 s
Overall bit rate : 2 573 kb/s
Writing application : Lavf58.20.100
Video
ID : 1
Format : AVC
Format/Info : Advanced Video Codec
Format profile :
Format settings : CABAC / 4 Ref Frames
Format settings, CABAC : Yes
Format settings, Reference frames : 4 frames
Codec ID : avc1
Codec ID/Info : Advanced Video Coding
Duration : 18 min 53 s
Bit rate : 2 437 kb/s
Width : 1 384 pixels
Height : 1 080 pixels
Display aspect ratio : 1.281
Frame rate mode : Constant
Frame rate : 25.000 FPS
Color space : YUV
Chroma subsampling : 4:2:0
Bit depth : 8 bits
Scan type : Progressive
Bits/(Pixel*Frame) : 0.065
Stream size : 329 MiB (95%)
Title : ISO Media file produced by Google Inc.
Writing library : x264 core 155 r2917 0a84d98
Encoding settings : cabac=1 / ref=3 / deblock=1:0:0 / analyse=0x3:0x113 / me=hex / subme=7 / psy=1 / psy_rd=1.00:0.00 / mixed_ref=1 / me_range=16 / chroma_me=1 / trellis=1 / 8x8dct=1 / cqm=0 / deadzone=21,11 / fast_pskip=1 / chroma_qp_offset=-2 / threads=18 / lookahead_threads=3 / sliced_threads=0 / nr=0 / decimate=1 / interlaced=0 / bluray_compat=0 / constrained_intra=0 / bframes=3 / b_pyramid=2 / b_adapt=1 / b_bias=0 / direct=1 / weightb=1 / open_gop=0 / weightp=2 / keyint=250 / keyint_min=25 / scenecut=40 / intra_refresh=0 / rc_lookahead=40 / rc=crf / mbtree=1 / crf=23.0 / qcomp=0.60 / qpmin=0 / qpmax=69 / qpstep=4 / ip_ratio=1.40 / aq=1:1.00
Codec configuration box : avcC
Audio
ID : 2
Format : AAC LC
Format/Info : Advanced Audio Codec Low Complexity
Codec ID : mp4a-40-2
Duration : 18 min 53 s
Bit rate mode : Constant
Bit rate : 129 kb/s
Channel(s) : 2 channels
Channel layout : L R
Sampling rate : 44.1 kHz
Frame rate : 43.066 FPS (1024 SPF)
Compression mode : Lossy
Stream size : 17.4 MiB (5%)
Title : ISO Media file produced by Google Inc.
Default : Yes
Alternate group : 1
General
Complete name : 4. Як козаки сіль купували (1975).mp4
Format : MPEG-4
Format profile : Base Media
Codec ID : isom (isom/iso2/avc1/mp41)
File size : 250 MiB
Duration : 9 min 21 s
Overall bit rate : 3 738 kb/s
Writing application : Lavf58.20.100
Video
ID : 1
Format : AVC
Format/Info : Advanced Video Codec
Format profile :
Format settings : CABAC / 4 Ref Frames
Format settings, CABAC : Yes
Format settings, Reference frames : 4 frames
Codec ID : avc1
Codec ID/Info : Advanced Video Coding
Duration : 9 min 21 s
Bit rate : 3 604 kb/s
Width : 1 384 pixels
Height : 1 080 pixels
Display aspect ratio : 1.281
Frame rate mode : Constant
Frame rate : 25.000 FPS
Color space : YUV
Chroma subsampling : 4:2:0
Bit depth : 8 bits
Scan type : Progressive
Bits/(Pixel*Frame) : 0.096
Stream size : 241 MiB (96%)
Title : ISO Media file produced by Google Inc.
Writing library : x264 core 155 r2917 0a84d98
Encoding settings : cabac=1 / ref=3 / deblock=1:0:0 / analyse=0x3:0x113 / me=hex / subme=7 / psy=1 / psy_rd=1.00:0.00 / mixed_ref=1 / me_range=16 / chroma_me=1 / trellis=1 / 8x8dct=1 / cqm=0 / deadzone=21,11 / fast_pskip=1 / chroma_qp_offset=-2 / threads=18 / lookahead_threads=3 / sliced_threads=0 / nr=0 / decimate=1 / interlaced=0 / bluray_compat=0 / constrained_intra=0 / bframes=3 / b_pyramid=2 / b_adapt=1 / b_bias=0 / direct=1 / weightb=1 / open_gop=0 / weightp=2 / keyint=250 / keyint_min=25 / scenecut=40 / intra_refresh=0 / rc_lookahead=40 / rc=crf / mbtree=1 / crf=23.0 / qcomp=0.60 / qpmin=0 / qpmax=69 / qpstep=4 / ip_ratio=1.40 / aq=1:1.00
Codec configuration box : avcC
Audio
ID : 2
Format : AAC LC
Format/Info : Advanced Audio Codec Low Complexity
Codec ID : mp4a-40-2
Duration : 9 min 21 s
Bit rate mode : Constant
Bit rate : 129 kb/s
Channel(s) : 2 channels
Channel layout : L R
Sampling rate : 44.1 kHz
Frame rate : 43.066 FPS (1024 SPF)
Compression mode : Lossy
Stream size : 8.62 MiB (3%)
Title : ISO Media file produced by Google Inc.
Default : Yes
Alternate group : 1
General
Complete name : 5. Як козаки олімпійцями стали (1978).mp4
Format : MPEG-4
Format profile : Base Media
Codec ID : isom (isom/iso2/avc1/mp41)
File size : 338 MiB
Duration : 17 min 39 s
Overall bit rate : 2 678 kb/s
Writing application : Lavf58.20.100
Video
ID : 1
Format : AVC
Format/Info : Advanced Video Codec
Format profile :
Format settings : CABAC / 4 Ref Frames
Format settings, CABAC : Yes
Format settings, Reference frames : 4 frames
Codec ID : avc1
Codec ID/Info : Advanced Video Coding
Duration : 17 min 39 s
Bit rate : 2 543 kb/s
Width : 1 384 pixels
Height : 1 080 pixels
Display aspect ratio : 1.281
Frame rate mode : Constant
Frame rate : 25.000 FPS
Color space : YUV
Chroma subsampling : 4:2:0
Bit depth : 8 bits
Scan type : Progressive
Bits/(Pixel*Frame) : 0.068
Stream size : 321 MiB (95%)
Title : ISO Media file produced by Google Inc.
Writing library : x264 core 155 r2917 0a84d98
Encoding settings : cabac=1 / ref=3 / deblock=1:0:0 / analyse=0x3:0x113 / me=hex / subme=7 / psy=1 / psy_rd=1.00:0.00 / mixed_ref=1 / me_range=16 / chroma_me=1 / trellis=1 / 8x8dct=1 / cqm=0 / deadzone=21,11 / fast_pskip=1 / chroma_qp_offset=-2 / threads=18 / lookahead_threads=3 / sliced_threads=0 / nr=0 / decimate=1 / interlaced=0 / bluray_compat=0 / constrained_intra=0 / bframes=3 / b_pyramid=2 / b_adapt=1 / b_bias=0 / direct=1 / weightb=1 / open_gop=0 / weightp=2 / keyint=250 / keyint_min=25 / scenecut=40 / intra_refresh=0 / rc_lookahead=40 / rc=crf / mbtree=1 / crf=23.0 / qcomp=0.60 / qpmin=0 / qpmax=69 / qpstep=4 / ip_ratio=1.40 / aq=1:1.00
Codec configuration box : avcC
Audio
ID : 2
Format : AAC LC
Format/Info : Advanced Audio Codec Low Complexity
Codec ID : mp4a-40-2
Duration : 17 min 39 s
Bit rate mode : Constant
Bit rate : 129 kb/s
Channel(s) : 2 channels
Channel layout : L R
Sampling rate : 44.1 kHz
Frame rate : 43.066 FPS (1024 SPF)
Compression mode : Lossy
Stream size : 16.3 MiB (5%)
Title : ISO Media file produced by Google Inc.
Default : Yes
Alternate group : 1
General
Complete name : 6. Як козаки мушкетерам допомагали (1979).mp4
Format : MPEG-4
Format profile : Base Media
Codec ID : isom (isom/iso2/avc1/mp41)
File size : 390 MiB
Duration : 17 min 40 s
Overall bit rate : 3 090 kb/s
Writing application : Lavf58.20.100
Video
ID : 1
Format : AVC
Format/Info : Advanced Video Codec
Format profile :
Format settings : CABAC / 4 Ref Frames
Format settings, CABAC : Yes
Format settings, Reference frames : 4 frames
Codec ID : avc1
Codec ID/Info : Advanced Video Coding
Duration : 17 min 40 s
Bit rate : 2 955 kb/s
Width : 1 384 pixels
Height : 1 080 pixels
Display aspect ratio : 1.281
Frame rate mode : Constant
Frame rate : 25.000 FPS
Color space : YUV
Chroma subsampling : 4:2:0
Bit depth : 8 bits
Scan type : Progressive
Bits/(Pixel*Frame) : 0.079
Stream size : 373 MiB (96%)
Title : ISO Media file produced by Google Inc.
Writing library : x264 core 155 r2917 0a84d98
Encoding settings : cabac=1 / ref=3 / deblock=1:0:0 / analyse=0x3:0x113 / me=hex / subme=7 / psy=1 / psy_rd=1.00:0.00 / mixed_ref=1 / me_range=16 / chroma_me=1 / trellis=1 / 8x8dct=1 / cqm=0 / deadzone=21,11 / fast_pskip=1 / chroma_qp_offset=-2 / threads=18 / lookahead_threads=3 / sliced_threads=0 / nr=0 / decimate=1 / interlaced=0 / bluray_compat=0 / constrained_intra=0 / bframes=3 / b_pyramid=2 / b_adapt=1 / b_bias=0 / direct=1 / weightb=1 / open_gop=0 / weightp=2 / keyint=250 / keyint_min=25 / scenecut=40 / intra_refresh=0 / rc_lookahead=40 / rc=crf / mbtree=1 / crf=23.0 / qcomp=0.60 / qpmin=0 / qpmax=69 / qpstep=4 / ip_ratio=1.40 / aq=1:1.00
Codec configuration box : avcC
Audio
ID : 2
Format : AAC LC
Format/Info : Advanced Audio Codec Low Complexity
Codec ID : mp4a-40-2
Duration : 17 min 40 s
Bit rate mode : Constant
Bit rate : 128 kb/s
Channel(s) : 2 channels
Channel layout : L R
Sampling rate : 44.1 kHz
Frame rate : 43.066 FPS (1024 SPF)
Compression mode : Lossy
Stream size : 16.2 MiB (4%)
Title : ISO Media file produced by Google Inc.
Default : Yes
Alternate group : 1
General
Complete name : 7. Як козаки на весіллі гуляли (1984).mp4
Format : MPEG-4
Format profile : Base Media
Codec ID : isom (isom/iso2/avc1/mp41)
File size : 336 MiB
Duration : 19 min 37 s
Overall bit rate : 2 396 kb/s
Writing application : Lavf58.20.100
Video
ID : 1
Format : AVC
Format/Info : Advanced Video Codec
Format profile :
Format settings : CABAC / 4 Ref Frames
Format settings, CABAC : Yes
Format settings, Reference frames : 4 frames
Codec ID : avc1
Codec ID/Info : Advanced Video Coding
Duration : 19 min 37 s
Bit rate : 2 262 kb/s
Width : 1 384 pixels
Height : 1 080 pixels
Display aspect ratio : 1.281
Frame rate mode : Constant
Frame rate : 25.000 FPS
Color space : YUV
Chroma subsampling : 4:2:0
Bit depth : 8 bits
Scan type : Progressive
Bits/(Pixel*Frame) : 0.061
Stream size : 317 MiB (94%)
Title : ISO Media file produced by Google Inc.
Writing library : x264 core 155 r2917 0a84d98
Encoding settings : cabac=1 / ref=3 / deblock=1:0:0 / analyse=0x3:0x113 / me=hex / subme=7 / psy=1 / psy_rd=1.00:0.00 / mixed_ref=1 / me_range=16 / chroma_me=1 / trellis=1 / 8x8dct=1 / cqm=0 / deadzone=21,11 / fast_pskip=1 / chroma_qp_offset=-2 / threads=18 / lookahead_threads=3 / sliced_threads=0 / nr=0 / decimate=1 / interlaced=0 / bluray_compat=0 / constrained_intra=0 / bframes=3 / b_pyramid=2 / b_adapt=1 / b_bias=0 / direct=1 / weightb=1 / open_gop=0 / weightp=2 / keyint=250 / keyint_min=25 / scenecut=40 / intra_refresh=0 / rc_lookahead=40 / rc=crf / mbtree=1 / crf=23.0 / qcomp=0.60 / qpmin=0 / qpmax=69 / qpstep=4 / ip_ratio=1.40 / aq=1:1.00
Codec configuration box : avcC
Audio
ID : 2
Format : AAC LC
Format/Info : Advanced Audio Codec Low Complexity
Codec ID : mp4a-40-2
Duration : 19 min 37 s
Bit rate mode : Constant
Bit rate : 128 kb/s
Channel(s) : 2 channels
Channel layout : L R
Sampling rate : 44.1 kHz
Frame rate : 43.066 FPS (1024 SPF)
Compression mode : Lossy
Stream size : 18.0 MiB (5%)
Title : ISO Media file produced by Google Inc.
Default : Yes
Alternate group : 1
General
Complete name : 8. Як козаки інопланетян зустрічали (1987).mp4
Format : MPEG-4
Format profile : Base Media
Codec ID : isom (isom/iso2/avc1/mp41)
File size : 385 MiB
Duration : 17 min 28 s
Overall bit rate : 3 085 kb/s
Writing application : Lavf58.20.100
Video
ID : 1
Format : AVC
Format/Info : Advanced Video Codec
Format profile :
Format settings : CABAC / 4 Ref Frames
Format settings, CABAC : Yes
Format settings, Reference frames : 4 frames
Codec ID : avc1
Codec ID/Info : Advanced Video Coding
Duration : 17 min 28 s
Bit rate : 2 950 kb/s
Width : 1 384 pixels
Height : 1 080 pixels
Display aspect ratio : 1.281
Frame rate mode : Constant
Frame rate : 25.000 FPS
Color space : YUV
Chroma subsampling : 4:2:0
Bit depth : 8 bits
Scan type : Progressive
Bits/(Pixel*Frame) : 0.079
Stream size : 369 MiB (96%)
Title : ISO Media file produced by Google Inc.
Writing library : x264 core 155 r2917 0a84d98
Encoding settings : cabac=1 / ref=3 / deblock=1:0:0 / analyse=0x3:0x113 / me=hex / subme=7 / psy=1 / psy_rd=1.00:0.00 / mixed_ref=1 / me_range=16 / chroma_me=1 / trellis=1 / 8x8dct=1 / cqm=0 / deadzone=21,11 / fast_pskip=1 / chroma_qp_offset=-2 / threads=18 / lookahead_threads=3 / sliced_threads=0 / nr=0 / decimate=1 / interlaced=0 / bluray_compat=0 / constrained_intra=0 / bframes=3 / b_pyramid=2 / b_adapt=1 / b_bias=0 / direct=1 / weightb=1 / open_gop=0 / weightp=2 / keyint=250 / keyint_min=25 / scenecut=40 / intra_refresh=0 / rc_lookahead=40 / rc=crf / mbtree=1 / crf=23.0 / qcomp=0.60 / qpmin=0 / qpmax=69 / qpstep=4 / ip_ratio=1.40 / aq=1:1.00
Codec configuration box : avcC
Audio
ID : 2
Format : AAC LC
Format/Info : Advanced Audio Codec Low Complexity
Codec ID : mp4a-40-2
Duration : 17 min 28 s
Bit rate mode : Constant
Bit rate : 128 kb/s
Channel(s) : 2 channels
Channel layout : L R
Sampling rate : 44.1 kHz
Frame rate : 43.066 FPS (1024 SPF)
Compression mode : Lossy
Stream size : 16.0 MiB (4%)
Title : ISO Media file produced by Google Inc.
Default : Yes
Alternate group : 1
General
Complete name : 9. Як козаки в хокей грали (1995).mp4
Format : MPEG-4
Format profile : Base Media
Codec ID : isom (isom/iso2/avc1/mp41)
File size : 338 MiB
Duration : 17 min 58 s
Overall bit rate : 2 631 kb/s
Writing application : Lavf58.20.100
Video
ID : 1
Format : AVC
Format/Info : Advanced Video Codec
Format profile :
Format settings : CABAC / 4 Ref Frames
Format settings, CABAC : Yes
Format settings, Reference frames : 4 frames
Codec ID : avc1
Codec ID/Info : Advanced Video Coding
Duration : 17 min 58 s
Bit rate : 2 496 kb/s
Width : 1 384 pixels
Height : 1 080 pixels
Display aspect ratio : 1.281
Frame rate mode : Constant
Frame rate : 23.976 (24000/1001) FPS
Color space : YUV
Chroma subsampling : 4:2:0
Bit depth : 8 bits
Scan type : Progressive
Bits/(Pixel*Frame) : 0.070
Stream size : 321 MiB (95%)
Title : ISO Media file produced by Google Inc.
Writing library : x264 core 155 r2917 0a84d98
Encoding settings : cabac=1 / ref=3 / deblock=1:0:0 / analyse=0x3:0x113 / me=hex / subme=7 / psy=1 / psy_rd=1.00:0.00 / mixed_ref=1 / me_range=16 / chroma_me=1 / trellis=1 / 8x8dct=1 / cqm=0 / deadzone=21,11 / fast_pskip=1 / chroma_qp_offset=-2 / threads=18 / lookahead_threads=3 / sliced_threads=0 / nr=0 / decimate=1 / interlaced=0 / bluray_compat=0 / constrained_intra=0 / bframes=3 / b_pyramid=2 / b_adapt=1 / b_bias=0 / direct=1 / weightb=1 / open_gop=0 / weightp=2 / keyint=250 / keyint_min=23 / scenecut=40 / intra_refresh=0 / rc_lookahead=40 / rc=crf / mbtree=1 / crf=23.0 / qcomp=0.60 / qpmin=0 / qpmax=69 / qpstep=4 / ip_ratio=1.40 / aq=1:1.00
Codec configuration box : avcC
Audio
ID : 2
Format : AAC LC
Format/Info : Advanced Audio Codec Low Complexity
Codec ID : mp4a-40-2
Duration : 17 min 58 s
Bit rate mode : Constant
Bit rate : 128 kb/s
Channel(s) : 2 channels
Channel layout : L R
Sampling rate : 44.1 kHz
Frame rate : 43.066 FPS (1024 SPF)
Compression mode : Lossy
Stream size : 16.5 MiB (5%)
Title : ISO Media file produced by Google Inc.
Default : Yes
Alternate group : 1
Якість: SiteRip (youtube)
Відео:
кодек: H.264
розмір кадру: 1384 х 1080
бітрейт: 2100-3100 кб/с
Аудіо:
мова: без слів, але у вступному чи заключному слові деяких серій присутня російська
переклад: оригінал
кодек: AAC 2.0
бітрейт: 128 кб/с

Скріншоти









Джерело: YouTube
Особиста оцінка: 10 - без зайвих вагань рекомендую всім!

Anonymous

Опублікувати 15-Чер-2022 18:34

[Цитувати]

Чортовийки (Сезон 2, Серії 1-3 з ??) (2022) HDTVRip 1080p Жанр: комедія, пародія
Країна: Україна
Кінокомпанія: НЛО TV
Режисер: Олесь Юсипчук, Олександр Нарижнєв
Актори/ролі озвучують: Євген Сардаров (Данко), Олександр Солодкий (Левко), Михайло Карпань (Шпиндик), Олекса Мельник (Мер), Дмитро Бузинський (Борис), Євген Сінчуков (Шрам), Ольга Мотрич (Віка / Анжела), Максим Сінчуков (Микола / Полісмен), Анна Пелех (Бабуся Шпиндика)
Сюжет:Чортовийки — це невеличке, відрізане від світу провінційне містечко. Троє друзів — Данко, Шпиндик і Левко, різні за характером підлітки, переживають пригоди, разом потрапляють у різні халепи і разом виплутуються з них. Чи не щодня хлопці зіштовхуються з реальними чи вигаданими проблемами, серед яких і місто інтернет-зомбі, борються з велетенськими равликами-мутантами чи шукають старовинні скарби.Тривалість: 1 серія: ~25 хв. (цілком серій: 3)

Перелік серій

01) Епізод 1
02) Епізод 2
03) Епізод 3
* нумерація серій може не відповідати дійсності
Якість: HDTVRip
Відео:
кодек: H.264
розмір кадру: 1920 x 1080
бітрейт: ~3800 кб/с
Аудіо:
мова: українська
переклад: оригінал
кодек: AAC 2.0
бітрейт: 257 кб/с

MediaInfo

General
Unique ID : 4054407814278070285378920656206718531 (0x30CD9BD189A50F552FB57EEC7566643)
Complete name : F:\Support\series\Чортовийки (Сезон 2) [HDTVRip, 1080p]\Чортовийки.s02e01.1080p.HDTVRip.mkv
Format : Matroska
Format version : Version 4
File size : 748 MiB
Duration : 24 min 58 s
Overall bit rate mode : Variable
Overall bit rate : 4 187 kb/s
Encoded date : UTC 2022-04-17 17:29:39
Writing application : mkvmerge v57.0.0 ('Till The End') 64-bit
Writing library : libebml v1.4.2 + libmatroska v1.6.4
Video
ID : 1
Format : AVC
Format/Info : Advanced Video Codec
Format profile :
Format settings : CABAC / 3 Ref Frames
Format settings, CABAC : Yes
Format settings, Reference : 3 frames
Format settings, GOP : M=1, N=50
Codec ID : V_MPEG4/ISO/AVC
Duration : 24 min 58 s
Bit rate mode : Variable
Bit rate : 3 928 kb/s
Nominal bit rate : 3 731 kb/s
Maximum bit rate : 4 799 kb/s
Width : 1 920 pixels
Height : 1 080 pixels
Display aspect ratio : 16:9
Frame rate mode : Constant
Frame rate : 25.000 FPS
Color space : YUV
Chroma subsampling : 4:2:0
Bit depth : 8 bits
Scan type : Progressive
Bits/(Pixel*Frame) : 0.076
Stream size : 702 MiB (94%)
Writing library : x264 core 160 r3000
Encoding settings : cabac=1 / ref=3 / deblock=1:0:0 / analyse=0x3:0x113 / me=hex / subme=4 / psy=1 / psy_rd=1.00:0.00 / mixed_ref=0 / me_range=16 / chroma_me=1 / trellis=1 / 8x8dct=1 / cqm=0 / deadzone=21,11 / fast_pskip=1 / chroma_qp_offset=0 / threads=4 / lookahead_threads=1 / sliced_threads=0 / nr=0 / decimate=1 / interlaced=0 / bluray_compat=0 / constrained_intra=0 / bframes=0 / weightp=1 / keyint=50 / keyint_min=5 / scenecut=0 / intra_refresh=0 / rc_lookahead=20 / rc=abr / mbtree=1 / bitrate=3731 / ratetol=1.0 / qcomp=0.60 / qpmin=0 / qpmax=69 / qpstep=4 / vbv_maxrate=4799 / vbv_bufsize=9600 / nal_hrd=none / filler=0 / ip_ratio=1.40 / aq=1:1.00
Default : Yes
Forced : No
Audio
ID : 2
Format : AAC LC
Format/Info : Advanced Audio Codec Low Complexity
Codec ID : A_AAC-2
Duration : 24 min 58 s
Bit rate : 257 kb/s
Channel(s) : 2 channels
Channel layout : L R
Sampling rate : 44.1 kHz
Frame rate : 43.066 FPS (1024 SPF)
Compression mode : Lossy
Stream size : 45.9 MiB (6%)
Language : Ukrainian
Default : Yes
Forced : No

Скріншоти

Джерело:
Особиста оцінка: 9 - класний мульт->>> Усі релізи серіалу на Гуртом <<<-

Anonymous

Опублікувати 15-Чер-2022 18:34

[Цитувати]

Всі одноіменні релізи на трекері
Чортовийки (Сезон 1) (2019) WEBRip 1080p
Жанр: ситком, комедія, пародія
Країна: Україна
Студія: NLO-TV
Режисер: Олесь Юсипчук, Олександр Нарижнєв
Сюжет:«Чортовийки» – це невеличке, відрізане від світу провінційне містечко. Троє друзів – Данко, Шпиндик і Левко, різні за характером підлітки, переживають пригоди, разом потрапляють у різні халепи і разом виплутуються з них. Вони протистоять цілому місту інтернет-зомбі, починають підпільне виробництво «Копі-Лювак», борються з велетенськими слимаками-мутантами, шукають легендарні козацькі скарби. Хоч би якими складними здавалися проблеми, юні герої завжди знайдуть вихід. Хоч і не завжди неправильний.Тривалість: 1 серія: 25:00 (цілком серій: 10)
Якість: WEBRip
Відео: кодек: H.264 розмір кадру: 1920x1080 бітрейт: 1000 кб/с
Аудіо: мова: українська переклад: оригінал кодек: AАС 2.0 бітрейт: 160 кб/с

Перелік серій

01-10

Інформація про файл&#58;

General
Unique ID : 62538425481538346895053822299983229278 (0x2F0C766EFBC0C3B79A17433A5C5AB15E)
Complete name : D:\Documents\Torrents\MULTSER\Чортовийки 1080p WEBRip\Чортовийки.E01.1080p.WEBRip.mkv
Format : Matroska
Format version : Version 4
File size : 212 MiB
Duration : 25 min 23 s
Overall bit rate : 1 167 kb/s
Writing application : VideoReDo (Lavf56.25.101)
Writing library : VideoReDo (Lavf56.25.101)
Video
ID : 1
Format : AVC
Format/Info : Advanced Video Codec
Format profile :
Format settings : CABAC / 3 Ref Frames
Format settings, CABAC : Yes
Format settings, Reference : 3 frames
Format settings, GOP : M=1, N=15
Codec ID : V_MPEG4/ISO/AVC
Duration : 25 min 23 s
Width : 1 920 pixels
Height : 1 080 pixels
Display aspect ratio : 16:9
Frame rate mode : Constant
Frame rate : 23.976 FPS
Color space : YUV
Chroma subsampling : 4:2:0
Bit depth : 8 bits
Scan type : Progressive
Default : No
Forced : No
Color range : Limited
Color primaries : BT.709
Transfer characteristics : BT.709
Matrix coefficients : BT.709
Audio
ID : 2
Format : AAC LC
Format/Info : Advanced Audio Codec Low Complexity
Codec ID : A_AAC-2
Duration : 25 min 23 s
Channel(s) : 2 channels
Channel layout : L R
Sampling rate : 44.1 kHz
Frame rate : 43.066 FPS (1024 SPF)
Compression mode : Lossy
Language : Russian
Default : Yes
Forced : No
Скріншоти:

Запис: sergiyko

Anonymous

Опублікувати 15-Чер-2022 18:33

[Цитувати]

Ескімоска (Сезон 1-3) (2012-2015) WEB-DL 1080p Жанр: анімація, комедія
Країна: Україна
Кінокомпанія: Animagrad
Режисер: Олексій Шапарєв
Сюжет:
Динамічний і веселий комедійний фільм для маленьких дітей. Головними героями проекту є дівчинка-ескімоска та двоє її друзів, які живуть за полярним колом. Протягом фільму вони стикаються з незвичайними для їх маленького світу предметами, які до берега приносить океан. Друзі обстежують предмети та знаходять для них цікаві використання.
Тривалість: 1 серія: ~ 6 хв. (цілком серій: 78/78)
Якість: WEB-DL
Відео: H.264, 1920х1080, ~3000 kbps
Аудіо: українська, AC3 2.0, 192 kbps [оригінал]

Перелік серій

01. «Дзиґа»
02. «Ракетка»
03. «Фризбі»
04. «Капелюх»
05. «Скейт»
06. «Парасолька»
07. «Клаксон»
08. «Метеозонд»
09. «Рятувальний Бот»
10. «Дзвіночок»
11. «Футбольний м'яч»
12. «Рятувальний круг»
13. «Скакалка»
14. «Вогнегасник»
15. «Обруч»
16. «Підзорна труба»
17. «Обладунки лицаря»
18. «8 Березня»
19. «Валіза Клоуна»
20. «Зірка впала»
21. «Мильні бульбашки»
22. «Манекен»
23. «Куля для боулінгу»
24. «Телевізор»
25. «Грамофон»
26. «Лампа Аладдіна»

Сезон 2 - серії 26/26

01. «Сліди»
02. «Окуляри»
03. «Колесо»
04. «Будильник»
05. «Повітряний змій»
06. «Дзеркальце»
07. «Пляжні іграшки»
08. «Карта»
09. «Йо-Йо»
10. «Матрьошка»
11. «Художники»
12. «Лiхтарик»
13. «Глобус»
14. «Весілля»
15. «Малюк»
16. «Коник»
17. «Метелик»
18. «Ловець снів»
19. «Головоломка»
20. «Ласти і маска»
21. «Чарівний пульт»
22. «Теплиця»
23. «Гармошка»
24. «Термос»
25. «Фотоапарат»
26. «Ялинка»

Сезон 3 - серії 26/26

01. «Пташина домівка»
02. «Намисто»
03. «Порятунок Китеня»
04. «Збережемо ліс»
05. «Пінгвіни-нечупари»
06. «Нафтова пляма»
07. «Буря»
08. «Пакети»
09. «Ведмежі хитрощі»
10. «Куди поділась риба»
11. «Маленький друг»
12. «Чудовисько»
13. «Не ловіть птахів»
14. «Хімічні відходи»
15. «Навчаємося літати»
16. «Подвиг Громили»
17. «Новий сусід»
18. «Рятуємо ялинку»
19. «День Народження»
20. «Пригоди Афі»
21. «Винахід Розумника»
22. «Зберігайте енергію»
23. «Відеокамера»
24. «Навчаємося рахувати»
25. «Веселий оркестр»
26. «Полярник повертається додому»

Скріншоти




Торрент-файл оновлено (06.03.2016). Повне оновлення релізу.
Особиста оцінка: 0 - не дивився.

Anonymous

Опублікувати 15-Чер-2022 18:33

[Цитувати]

Ескімоска - 4 сезон (2016) WEBRip 720p Жанр: анімація, пригодницький, дитячий, німе кіно, комедія, сімейний
Країна: Україна
Кінокомпанія: Animagrad
Режисер: Олексій Шапарєв
Продюсер: Єгор Олесов
Сюжет:В Арктиці завжди лежить сніг і ніколи не буває спекотного літа. Але маленька дівчинка Ескімоска не сумує навіть за таких суворих умов. Щодня на неї чекають дивовижні події та знахідки: море приносить грамофон, клаксон, рятувальний пліт, парасольку... Що це за предмети і для чого вони потрібні? Ескімоска та її друзі готові розгадувати найскладніші загадки!
Кожна серія мультфільму — добра і зворушлива історія для найменших глядачів про пригоди допитливої дівчинки Ескімоски та її друзів. Герої спілкуються між собою мовою жестів, міміки і звуків, зрозумілою дітям у всьому світі. Повсякденні пригоди героїв допомагають глядачам у веселій формі дізнаватися про прості, але важливі речі та розвивати логічне мислення.
Тривалість: 1 серія: 6 хв. (цілком серій: 26)

Перелік серій

1. Повернення полярника
2. Озонова дірка
3. Телевізор
4. Неслухняні пінгвіни
5. Океан захворів
6. Змагання
7. Морозиво
8. Сміливий Афі
9. Новий друг
10. Снігохід
11. Риболовля
12. Полярник і Діді
13. Арктична мода
14. Чарівний бубон
15. Разом веселіше
16. Полярник захворів
17. Новосілля
18. Пташенята шибеники
19. Динаміт
20. Дивна знахідка
21. Ведмедик-крадійко
22. Посварилися
23. Пригоди на кухні
24. Браконьєри
25. День народження Діді
26. Небезпечні ігри
Якість: WEBRip
Відео:
кодек: H.264
розмір кадру: 1280x720
бітрейт: ~2000 kbps
Аудіо:
мова: українська
переклад: оригінал
кодек: AАС 2ch
бітрейт: 126 kbps

Скріншоти

Джерело: tet.tv
Особиста оцінка: 8 - мені сподобалося

Anonymous

Опублікувати 15-Чер-2022 18:29

[Цитувати]

Наша файта (Сезон 1, Серія 1-4 + Бонуси) (2013-2014) WEBDL 720p Жанр: анімація, комедія
Країна: Україна, Ужгород
Кінокомпанія: Студія Ідей - KARMAN
Режисер: Михайло Карпенко, Павло Мандзич
Актори/ролі озвучують: Олександр Мерявчик, Марина Оганесян, Михайло Карпенко, Павло Мандзич, Мирослав Качур, Клара Берец, Наталія Засухіна
Сюжет:Гумористичний закарпатський мультесеріал. Розповідає про хлопця який втратив бажання жити, через те, що його кинула дівчина, звільнили з роботи, і навіть його кіт пішов від нього... Після того як хлопця збиває сміттєвоз і він потрапляє до раю йому стажер апостола Петра радить знайти загадкового Мирослава Ракатоша, який може повернути нашому герою бажання жити, після цього нашого героя повертають на землю... І він починає пошуки Мирослава Ракатоша...
В мульті ви дізнаєтесь багато з того, що б не могли й подумати про мальовниче Закарпаття... Наприклад про вулкан з боґрачу, чи про "папрікош барона", про те як Анджеліна Джолі всиновлювала радванських циган і багато чого іншого, не менш цікавого...
Тривалість: 1 серія: а то вже по-різному (цілком серій: 4)

Мултсеріал

1. Welcome to Закарпаття.
2. Перша подорож.
3. Хустські пригоди
4. Тячівщина (частина перша)

Бонуси

1. Весільний мультфільм від "Нашої файти"
2. ДВЕСТІ з Дмітрійом Пасульовим.
3. Найкращий подарунок до Дня Святого Валентина.
4. ТРИСТАВІСІМ - "Наша файта"
Якість: WEBDL
Відео:
кодек: H.264
розмір кадру: 1280 x 720
бітрейт: 1150 кб/с
Аудіо:
мова: українська (закарпатський діалект)
переклад: оригінал
кодек: AAC 2.0
бітрейт: 192 кб/с
примітка: присутня ненормативна лексика (зовсім трішки)

Скріншоти











Джерело:
Особиста оцінка: 10 - без зайвих вагань рекомендую всім!

Anonymous

Опублікувати 15-Чер-2022 18:29

[Цитувати]

Моя країна – Україна (26 серій) (2009-2014) HDTV 1080i
Жанр: анімація, сімейний, навчальний
Країна: Україна
Кінокомпанія: Новаторфільм
Керівник проекту: Степан Коваль
Офіційний сайт проекту: http://krainaukraina.com
Режисери: О.Карпус, Степан Коваль, С.Могильний, О.Несененко, Н.Скрябіна, Л.Міщенко, О.Макарчук, О.Мушенко, М.Мурашко, Оксана Прищепа, Сергій Руденко, Андрій Слєсаревський, К.Чепік, Є.Альохін, О.Цуріков
Ролі озвучують: Сашко Лірник, Ганна Левченко, Катерина Буцька, Борис Георгієвський, Дмитро Завадський та інші
Сюжет:Пізнавальний анімаційний серіал для дітей та дорослих, історії різних міст та місць України, їх відомі або забуті казки, легенди...Офіційний трейлер:
https://www.youtube.com/embed/gl1NOXVAR5s
Тривалість: 1 серія: 03:04 ÷ 4:49 (цілком серій: 26)

Перелік серій

01. У Лірника в гостях (2010)
02. В подорож за казками (2010)
03. Луганський степ (2010)
04. Легедзине (2009)
05. Кривий Ріг (2010)
06. Шешори (2010)
07. Тернопільська квітка (2010)
08. Опук (2010)
09. Про Львів (2010)
10. Таки Одеса! (2011)
11. Чаша Ярослава (2011)
12. Чарівна грязюка (Саки, Крим) (2011)
13. Чому Вилкове (2011)
14. Верхівня (Житомирщина) (2011)
15. Хто живе на дні Пісочного (Шацькі озера) (2011)
16. Писанкова історія (2014)
17. Сонячний камінь (Рівненські ліси) (2012)
18. Чорне озеро (Знам’янка, Кіровоградщина) (2012)
19. Петриківка (2012)
20. Умань (2012)
21. Казочка про місто Борщів (Тернопільщина) (2012)
22. Мелітополь (2012)
23. Легенда про Святогора (2012)
24. Козацька дума про Якима, віргів та царя Клюка (2012)
25. Чорнозем (Чернігівщина) (2013)
26. Башта Беати (Дубно, Рівненщина) (2013)
Якість: HDTV 1080i
Відео:
кодек: H.264
розмір кадру: 1920 х 1080
бітрейт: 8979 ÷ 9690 Кбіт/с
Аудіо:
мова: українська
переклад: оригінал
кодек: AC3 5.1
бітрейт: 384 Кбіт/с Джерело:
За запис з подяка п.Sando7

Anonymous

Опублікувати 15-Чер-2022 18:28

[Цитувати]

Моя країна – Україна (8 серій) (2014) SiteRip 720р Жанр: анімація
Країна: Україна
Виробництво: НОВАТОРФІЛЬМ
Художній керівник: Степан Коваль
Режисери: Є. Альохін, М. Мурашко, О. Мушенко, О. Прищепа, С. Руденко, Н. Скрябіна, А. Слєсаревський, К. Чепік та ін.
Ролі озвучують: Сашко Лірник, Ганна Левченко, Катерина Буцька, Борис Георгієвський, Дмитро Завадський та ін.
Сюжет:"МОЯ КРАЇНА – УКРАЇНА" – це серіал анімаційних фільмів, створених молодими режисерами, аніматорами, художниками. Серіал створила студія НОВАТОРФІЛЬМ за підтримки Державного агентства України з питань кіно. Кожна серія тривалістю 3 хвилини розповідає відому або забуту казку, історію, легенду з конкретного міста України, будь-то велике місто чи маленьке село, поле або море.Тривалість серії: ~3:00 (загалом серій: 8)

Перелік серій

01 - Легедзине
02 - Кривий Ріг
04 - Луганський степ
05 - Шешори
06 - Тернопільська квітка
07 - Про Львів
08 - Опук
09 - Таки Одеса!
Якість: SiteRip
Відео:
кодек: AVC
розмір кадру: 1280х720
бітрейт: ~1790 кб/с
Аудіо:
мова: українська
переклад: оригінал
кодек: AAC
бітрейт: ~128 кб/с

Скріншоти


Джерело:
Особиста оцінка: 10 - без зайвих вагань рекомендую всім!
Офіційний сайт проекту: http://krainaukraina.com/Альтернативний реліз можна завантажити отутHDTV реліз можна завантажити отут
 

Поточний час: 05-Лют 13:18

Часовий пояс: UTC + 2